Loading...
Error

Дефиле (Виталий Суслин) [2015 г., драма, WEB-DLRip]

Статистика раздачи
Размер:  1,37 GB   |    Зарегистрирован:  4 месяца 30 дней   |    Скачан:  19 раз

Полного источника не было: 2 часа 49 минут

Сидов:  0  |  0 KB/s  ]   Личеров:  0  |  0 KB/s  ]

* - сиды/пиры с внешних источников

   
 
Автор Сообщение

makkol Пол:Муж

10-Июл-2016 22:36

Дефиле


Год выпуска: 2015
Жанр: драма
Производство: Россия [Продюсерский центр «ВГИК-Дебют»]
Режиссер: Виталий Суслин
В ролях: Махлина Анна, Карпова Мария, Прасолов Александр, Микитенко Петр, Микитенко Анастасия, Микитенко Кузьма, Эрнст Романов, Рублев Сергей, Ромашко Илья, Чурилова Галина
Сюжет фильма:
В основе сюжета фильма история троих друзей, которые встречаются в родной деревне после долгого отсутствия. Вовка работал на севере, Таракан — в районном городе охранником, у Олега в это время родился сын. Жизнь идет своим чередом, пока одним утром издалека в деревню не приезжают седой старик и две красивые девушки Маша и Даяна. Вовка влюбляется в Машу и он, пытаясь добиться внимания, приглашает её с подругой вечером отметить свой День рождения. На празднике Маша и Даяна знакомится с друзьями Вовки. Девушки меняют жизнь этих простых людей.

Качество видео: WEB-DLRip

Продолжительность: 01:26:01
Формат: AVI
Видео: XviD, 720x400 (16:9), 24.000 fps, 2071 kbps
Аудио: русский, оригинал, AC3 2.0, 48 kHz, 192 kbps

Код:

Формат : AVI
Формат/Информация : Audio Video Interleave
Размер файла : 1,37 Гбайт
Продолжительность : 1 ч. 26 м.
Общий поток : 2273 Кбит/сек
Программа кодирования : VirtualDubMod 1.5.10.3 | www.virtualdub-fr.org || (build 2550/release)
Библиотека кодирования : VirtualDubMod build 2550/release

Видео
Идентификатор : 0
Формат : MPEG-4 Visual
Профиль формата : Advanced Simple@L5
Параметр BVOP формата : 2
Параметр QPel формата : Нет
Параметр GMC формата : Без точки перехода
Параметр матрицы формата : Default (MPEG)
Идентификатор кодека : XVID
Идентификатор кодека/Подсказка : XviD
Продолжительность : 1 ч. 26 м.
Битрейт : 2071 Кбит/сек
Ширина : 720 пикселей
Высота : 400 пикселей
Соотношение сторон : 16:9
Частота кадров : 24,000 кадра/сек
Цветовое пространство : YUV
Субдискретизация насыщенности : 4:2:0
Битовая глубина : 8 бит
Тип развёртки : Прогрессивная
Метод сжатия : С потерями
Бит/(Пиксели*Кадры) : 0.300
Размер потока : 1,24 Гбайт (91%)
Библиотека кодирования : XviD 1.2.1 (UTC 2008-12-04)

Аудио
Идентификатор : 1
Формат : AC-3
Формат/Информация : Audio Coding 3
Расширение режима : CM (complete main)
Параметр Endianness формата : Big
Идентификатор кодека : 2000
Продолжительность : 1 ч. 26 м.
Вид битрейта : Постоянный
Битрейт : 192 Кбит/сек
Каналы : 2 канала
Расположение каналов : Front: L R
Частота : 48,0 КГц
Частота кадров : 31,250 кадров/сек (1536 spf)
Метод сжатия : С потерями
Размер потока : 118 Мбайт (8%)
Выравнивание : Разделение по промежуткам
Продолжительность промежутка : 42 мс. (1,00 видеокадр)
Время предзагрузки промежутка : 500 мс.
picpicpicpicpic
Для увеличения картинки щелкните мышкой по превью

Этот торрент недоступен для скачивания без регистрации, однако доступен по публичной magnet-ссылке (источники с публичных трекеров). Перед использованием ссылки прочтите, пожалуйста Пользовательское соглашение, а также как можно дольше оставайтесь на раздаче! Для того, чтобы скачать сам торрент-файл (который видит больше источников), а также для того, чтобы поблагодарить релизера, вам необходимо зарегистрироваться. Если регистрироваться лень - вы можете также попробовать скачать релиз по нашим партнерским ссылкам ниже.

[underverse.su].t67959.torrent
Трекер: Зарегистрирован   [ 10.07.2016 22:36 ]  

Статус: проверено (by makkol at 14.07.2016 23:33)
Поблагодарили: пока никто не поблагодарил...
Тип торрента: публичный - доступные источники с открытых трекеров: 
Размер: 1,37 GB (занимает 0,31 DVDR, для записи нужно 1 болванка DVDR/RW)
 
 

werty 

14-Авг-2016 15:03

:( :( :( :( :( :( :( :( :( :( :( :( :( :(

Яндекс.Метрика powered by Sphinx


В Н И М А Н И Е
Сайт не распространяет и не хранит электронные версии произведений, а лишь бесплатно и без коммерческой выгоды (не требуя взамен платы,
SMS и т.д.) предоставляет доступ к создаваемому пользователями каталогу ссылок на торрент-файлы, которые содержат только списки хеш-сумм.
Убедительная просьба с жалобами обращаться напрямую к пользователю, разместившему торрент файл.

Вверх