Loading...
Error

Кровоточащие сердца / Захваченные сердца / Bleeding Hearts / Captured Hearts (Дилан Бэнк) [2015 г., триллер, ужасы, WEB-DLRip] DVO

Статистика раздачи
Размер:  1,37 GB   |    Зарегистрирован:  5 месяцев   |    Скачан:  5 раз

Полного источника не было: 3 месяца 17 дней

Сидов:  0  |  0 KB/s  ]   Личеров:  0  |  0 KB/s  ]

* - сиды/пиры с внешних источников

   
 
Автор Сообщение

makkol Пол:Муж

10-Июл-2016 14:51

Кровоточащие сердца / Захваченные сердца
Bleeding Hearts / Captured Hearts


Год выпуска: 2015
Жанр: триллер, ужасы
Производство: США [Justice for All Productions]
Режиссер: Дилан Бэнк
В ролях: Роберт Лоджа, Чарльз Дёрнинг, Тони Тодд, Дастин Даймонд, Уилсон Жермен Эредия, Рэйчел Роббинс, Сьюзи Лоррейн, Кен Дель Веккьо, Роберт Бог, Меланта Блекторн
Сюжет фильма:
5 сестер - мужененавистниц каждый год собираются вместе, дабы похищать мужчин, насиловать и убивать...

  • Мировая премьера: 3 февраля 2015


Качество видео: WEB-DLRip

Продолжительность: 01:42:59
Формат: AVI
Видео: XviD, 704x400 (16:9), 23.976 fps, 1700 kbps
Аудио: русский, любительский двухголосый закадровый, AC3 2.0, 48 kHz, 192 kbps

Код:

Format                      : AVI
Format/Info                 : Audio Video Interleave
File size                   : 1.37 GiB
Duration                    : 1h 42mn
Overall bit rate            : 1 901 Kbps
Writing application         : VirtualDubMod 1.5.10.3 | www.virtualdub-fr.org || (build 2550/release)
Writing library             : VirtualDubMod build 2550/release

Video
ID                          : 0
Format                      : MPEG-4 Visual
Format profile              : Advanced Simple@L5
Format settings, BVOP       : 1
Format settings, QPel       : No
Format settings, GMC        : No warppoints
Format settings, Matrix     : Custom
Codec ID                    : XVID
Codec ID/Hint               : XviD
Duration                    : 1h 42mn
Bit rate                    : 1 700 Kbps
Width                       : 704 pixels
Height                      : 400 pixels
Display aspect ratio        : 16:9
Frame rate                  : 23.976 (23976/1000) fps
Color space                 : YUV
Chroma subsampling          : 4:2:0
Bit depth                   : 8 bits
Scan type                   : Progressive
Compression mode            : Lossy
Bits/(Pixel*Frame)          : 0.252
Stream size                 : 1.22 GiB (89%)
Writing library             : XviD 73

Audio
ID                          : 1
Format                      : AC-3
Format/Info                 : Audio Coding 3
Mode extension              : CM (complete main)
Format settings, Endianness : Big
Codec ID                    : 2000
Duration                    : 1h 42mn
Bit rate mode               : Constant
Bit rate                    : 192 Kbps
Channel(s)                  : 2 channels
Channel positions           : Front: L R
Sampling rate               : 48.0 KHz
Frame rate                  : 31.250 fps (1536 spf)
Compression mode            : Lossy
Stream size                 : 141 MiB (10%)
Alignment                   : Split accross interleaves
Interleave, duration        : 42 ms (1.00 video frame)
Interleave, preload duratio : 500 ms
Перевод: Северный
Озвучивание: den904 & DeadSno
picpicpicpicpic
Для увеличения картинки щелкните мышкой по превью

Этот торрент недоступен для скачивания без регистрации, однако доступен по публичной magnet-ссылке (источники с публичных трекеров). Перед использованием ссылки прочтите, пожалуйста Пользовательское соглашение, а также как можно дольше оставайтесь на раздаче! Для того, чтобы скачать сам торрент-файл (который видит больше источников), а также для того, чтобы поблагодарить релизера, вам необходимо зарегистрироваться. Если регистрироваться лень - вы можете также попробовать скачать релиз по нашим партнерским ссылкам ниже.

[underverse.su].t67953.torrent
Трекер: Зарегистрирован   [ 10.07.2016 14:51 ]  

Статус: проверено (by makkol at 14.07.2016 23:30)
Поблагодарили: пока никто не поблагодарил...
Тип торрента: публичный - доступные источники с открытых трекеров: 
Размер: 1,37 GB (занимает 0,31 DVDR, для записи нужно 1 болванка DVDR/RW)
 
 

Яндекс.Метрика powered by Sphinx


В Н И М А Н И Е
Сайт не распространяет и не хранит электронные версии произведений, а лишь бесплатно и без коммерческой выгоды (не требуя взамен платы,
SMS и т.д.) предоставляет доступ к создаваемому пользователями каталогу ссылок на торрент-файлы, которые содержат только списки хеш-сумм.
Убедительная просьба с жалобами обращаться напрямую к пользователю, разместившему торрент файл.

Вверх