Loading...
Error

Случайный экзорцист / Accidental Exorcist (Дэниэл Фалики) [2016 г., триллер, WEB-DLRip] VO

Статистика раздачи
Размер:  1,38 GB   |    Зарегистрирован:  4 месяца 29 дней   |    Скачан:  4 раза

Полного источника не было: 2 месяца

Сидов:  0  |  0 KB/s  ]   Личеров:  0  |  0 KB/s  ]

* - сиды/пиры с внешних источников

   
 
Автор Сообщение

makkol Пол:Муж

09-Июл-2016 22:58

Случайный экзорцист / Accidental Exorcist


Год выпуска: 2016
Жанр: триллер
Производство: США [Rotomation Pictures, Sector 5 Films]
Режиссер: Дэниэл Фалики
В ролях: Дэниэл Фалики, Шеррил Деспрес, Крис Котчер, Джейсон Рот
Сюжет фильма:
Писатель-алкоголик Ричард Ванак проваливается в любом начинании, будь-то попытка вести нормальную жизнь, найти девушку, построить семью или дописать книгу. Ему за тридцать и он безнадёжный неудачник. А всему виной сомнительный дар - он прирождённый экзорцист, способный противостоять самым сильным исчадиям ада и возвращать их домой.
Экзорцизм - единственная вещь, которая у Рика получается хорошо и он в этом лучший. Когда по всему городу вспыхивают случаи одержимости, лишь горе-писатель в состоянии спасти положение. Раз за разом случайный экзорцист спасает души невинных и одерживает верх над рвущимися в людской мир отродьями ада.
Помогая нуждающимся Ричард начинает осознавать, что его собственная душа находится в серьёзной опасности и по мере того, как он проводит ритуалы и принимает весь удар на себя, он сам утрачивает человеческий облик. Его дар всегда был проклятием, однако на этот раз всё зашло слишком далеко и случайный экзорцист должен найти способ спасти свою душу от вечных мук.

  • Мировая премьера: 11 марта 2016


Качество видео: WEB-DLRip

Продолжительность: 01:49:08
Формат: AVI
Видео: XviD, 720x304 (2.35:1), 23.976 fps, 1615 kbps
Аудио: русский, любительский одноголосый закадровый (Хихикающий доктор), AC3 2.0, 48 kHz, 192 kbps

Код:

Format                         : AVI
Format/Info                    : Audio Video Interleave
File size                      : 1.38 GiB
Duration                       : 1h 49mn
Overall bit rate               : 1 817 Kbps
Writing application            : VirtualDubMod 1.5.10.3 | (build 2550/release)
Writing library                : VirtualDubMod build 2550/release

Video
ID                             : 0
Format                         : MPEG-4 Visual
Format profile                 : Advanced Simple@L5
Format settings, BVOP          : 2
Format settings, QPel          : No
Format settings, GMC           : No warppoints
Format settings, Matrix        : Default (H.263)
Codec ID                       : XVID
Codec ID/Hint                  : XviD
Duration                       : 1h 49mn
Bit rate                       : 1 615 Kbps
Width                          : 720 pixels
Height                         : 304 pixels
Display aspect ratio           : 2.35:1
Frame rate                     : 23.976 fps
Color space                    : YUV
Chroma subsampling             : 4:2:0
Bit depth                      : 8 bits
Scan type                      : Progressive
Compression mode               : Lossy
Bits/(Pixel*Frame)             : 0.308
Stream size                    : 1.23 GiB (89%)
Writing library                : XviD 73

Audio
ID                             : 1
Format                         : AC-3
Format/Info                    : Audio Coding 3
Mode extension                 : CM (complete main)
Format settings, Endianness    : Big
Codec ID                       : 2000
Duration                       : 1h 49mn
Bit rate mode                  : Constant
Bit rate                       : 192 Kbps
Channel(s)                     : 2 channels
Channel positions              : Front: L R
Sampling rate                  : 48.0 KHz
Compression mode               : Lossy
Stream size                    : 150 MiB (11%)
Alignment                      : Split accross interleaves
Interleave, duration           : 42 ms (1.00 video frame)
Interleave, preload duration   : 500 ms
picpicpicpicpic
Для увеличения картинки щелкните мышкой по превью

Этот торрент недоступен для скачивания без регистрации, однако доступен по публичной magnet-ссылке (источники с публичных трекеров). Перед использованием ссылки прочтите, пожалуйста Пользовательское соглашение, а также как можно дольше оставайтесь на раздаче! Для того, чтобы скачать сам торрент-файл (который видит больше источников), а также для того, чтобы поблагодарить релизера, вам необходимо зарегистрироваться. Если регистрироваться лень - вы можете также попробовать скачать релиз по нашим партнерским ссылкам ниже.

[underverse.su].t67946.torrent
Трекер: Зарегистрирован   [ 09.07.2016 22:58 ]  

Статус: проверено (by makkol at 14.07.2016 23:27)
Поблагодарили: 1 человек
Тип торрента: публичный - доступные источники с открытых трекеров: 
Размер: 1,38 GB (занимает 0,32 DVDR, для записи нужно 1 болванка DVDR/RW)
 
 
Похожие темы
Форум Тема Автор Торрент Отв. Посл. сооб.
Зарубежное кино [DVDRip, Low-Res HDRip, и т.д.] Случайный свидетель / The Lost Samaritan (Томас Ян / Thomas Jahn) [2008, Боевик, Триллер, DVDRip] MVO Garnett
3 | 0

0 | 1104

8

07.01.2013 07:40

Зарубежное кино [DVDRip, Low-Res HDRip, и т.д.] Случайный доступ / Ra.One (Анубхав Синха) [2011 г., фантастика, боевик, приключения, HDRip] MVO garry
0 | 0

0 | 1420

26

20.02.2013 07:46

* Архив Случайный муж / The Accidental Husband (Гриффин Данн) [2008 г., комедия, мелодрама, DVDRip] kid8177

5 | 1264

29.08.2010 23:52


Яндекс.Метрика powered by Sphinx


В Н И М А Н И Е
Сайт не распространяет и не хранит электронные версии произведений, а лишь бесплатно и без коммерческой выгоды (не требуя взамен платы,
SMS и т.д.) предоставляет доступ к создаваемому пользователями каталогу ссылок на торрент-файлы, которые содержат только списки хеш-сумм.
Убедительная просьба с жалобами обращаться напрямую к пользователю, разместившему торрент файл.

Вверх