Loading...
Error

Чистое искусство (Ренат Давлетьяров) [2016 г., триллер, детектив, WEB-DLRip]

Статистика раздачи
Размер:  1,37 GB   |    Зарегистрирован:  4 месяца 28 дней   |    Скачан:  39 раз

Полного источника не было: 13 дней

Сидов:  0  |  0 KB/s  ]   Личеров:  0  |  0 KB/s  ]

* - сиды/пиры с внешних источников

   
 
Автор Сообщение

makkol Пол:Муж

09-Июл-2016 13:44

Чистое искусство
«....требует жертв»


Год выпуска: 2016
Жанр: триллер, детектив
Производство: Россия [Кинокомпания «Реал-Дакота»]
Режиссер: Ренат Давлетьяров
В ролях: Анна Чиповская, Пётр Фёдоров, Константин Юшкевич, Илья Любимов, Дмитрий Брауэр, Александр Яценко, Алексей Барабаш, Леонид Мозговой, Людмила Чурсина, Анатолий Белый
Сюжет фильма:
«Ты живешь свою жизнь, думаешь про завтра и не знаешь, что кто-то чужой уже влез в твою жизнь и все в ней зачеркнул…» Саша — известный фотограф. Она молода и красива. Неожиданно ее счастливая жизнь рушится. Она становится свидетелем загадочного убийства и тут же оказывается вовлеченной в криминальную аферу, связанную с живописью и большими деньгами. Теперь кажется, что весь мир против нее — за ней охотятся и хотят убить. Пытаясь понять, что с ней происходит, Саша не готова сдаваться. Движимая стремлением разгадать тайну, она начинает свое расследование…

  • Российская премьера: 9 июня 2016


Качество видео: WEB-DLRip

Продолжительность: 01:28:25
Формат: AVI
Видео: XviD, 720x400 (16:9), 25.000 fps, 1820 kbps
Аудио: русский, оригинал (iTunes), AC3 5.1, 48 kHz, 384 kbps

Код:

Формат                                   : AVI
Формат/Информация                        : Audio Video Interleave
Размер файла                             : 1,37 Гбайт
Продолжительность                        : 1 ч. 28 м.
Общий поток                              : 2214 Кбит/сек
Программа кодирования                    : VirtualDubMod 1.5.10.2 (build 2540/release)
Библиотека кодирования                   : VirtualDubMod build 2540/release

Видео
Идентификатор                            : 0
Формат                                   : MPEG-4 Visual
Профиль формата                          : Advanced Simple@L5
Параметр BVOP формата                    : 2
Параметр QPel формата                    : Нет
Параметр GMC формата                     : Без точки перехода
Параметр матрицы формата                 : Выборочная
Идентификатор кодека                     : XVID
Идентификатор кодека/Подсказка           : XviD
Продолжительность                        : 1 ч. 28 м.
Битрейт                                  : 1820 Кбит/сек
Ширина                                   : 720 пикселей
Высота                                   : 400 пикселей
Соотношение сторон                       : 16:9
Частота кадров                           : 25,000 кадров/сек
Цветовое пространство                    : YUV
Субдискретизация насыщенности            : 4:2:0
Битовая глубина                          : 8 бит
Тип развёртки                            : Прогрессивная
Метод сжатия                             : С потерями
Бит/(Пиксели*Кадры)                      : 0.253
Размер потока                            : 1,12 Гбайт (82%)
Библиотека кодирования                   : XviD 1.2.1 (UTC 2008-12-04)

Аудио
Идентификатор                            : 1
Формат                                   : AC-3
Формат/Информация                        : Audio Coding 3
Расширение режима                        : CM (complete main)
Параметр Endianness формата              : Big
Идентификатор кодека                     : 2000
Продолжительность                        : 1 ч. 28 м.
Вид битрейта                             : Постоянный
Битрейт                                  : 384 Кбит/сек
Каналы                                   : 6 каналов
Расположение каналов                     : Front: L C R, Side: L R, LFE
Частота                                  : 48,0 КГц
Битовая глубина                          : 16 бит
Метод сжатия                             : С потерями
Размер потока                            : 243 Мбайт (17%)
Выравнивание                             : Разделение по промежуткам
Продолжительность промежутка             : 40  мс. (1,00 видеокадр)
Время предзагрузки промежутка            : 500  мс.
picpicpicpicpic
Для увеличения картинки щелкните мышкой по превью

Этот торрент недоступен для скачивания без регистрации, однако доступен по публичной magnet-ссылке (источники с публичных трекеров). Перед использованием ссылки прочтите, пожалуйста Пользовательское соглашение, а также как можно дольше оставайтесь на раздаче! Для того, чтобы скачать сам торрент-файл (который видит больше источников), а также для того, чтобы поблагодарить релизера, вам необходимо зарегистрироваться. Если регистрироваться лень - вы можете также попробовать скачать релиз по нашим партнерским ссылкам ниже.

[underverse.su].t67938.torrent
Трекер: Зарегистрирован   [ 09.07.2016 13:44 ]  

Статус: T временная (by makkol at 14.07.2016 23:24)
Поблагодарили: 1 человек
Тип торрента: публичный - доступные источники с открытых трекеров: 
Размер: 1,37 GB (занимает 0,31 DVDR, для записи нужно 1 болванка DVDR/RW)
 
 
Похожие темы
Форум Тема Автор Торрент Отв. Посл. сооб.
T Наше кино [HDDVDRip / BDRip / WEB-DL / HDTV 1080/720р] Чистое искусство (Ренат Давлетьяров) [2016 г., триллер, детектив, WEB-DL 1080p] makkol
101 | 2

0 | 348

27

09.07.2016 13:52


Яндекс.Метрика powered by Sphinx


В Н И М А Н И Е
Сайт не распространяет и не хранит электронные версии произведений, а лишь бесплатно и без коммерческой выгоды (не требуя взамен платы,
SMS и т.д.) предоставляет доступ к создаваемому пользователями каталогу ссылок на торрент-файлы, которые содержат только списки хеш-сумм.
Убедительная просьба с жалобами обращаться напрямую к пользователю, разместившему торрент файл.

Вверх