Loading...
Error

Снежный барс в зелёном Лондоне / Snow Leopards of Leafy London (1 сезон: 1-7 серии из 7) / (Эдриан Кейл) [2013 г., документальный, познавательный, животные, HDTVRip 720p] Dub

Статистика раздачи
Размер:  5,02 GB   |    Зарегистрирован:  4 месяца 24 дня   |    Скачан:  0 раз

Полного источника не было: 4 месяца 20 дней

Сидов:  0  |  0 KB/s  ]   Личеров:  0  |  0 KB/s  ]

* - сиды/пиры с внешних источников

   
 
Автор Сообщение

ARI71 Пол:Муж

09-Июл-2016 07:06

Снежный барс в зелёном Лондоне / Snow Leopards of Leafy London (1 сезон: 1-7 серии из 7)


Год выпуска: 2013
Жанр: документальный, познавательный, животные
Страна: США Animel Planet
Режиссер: Эдриан Кейл
В ролях: Эдриан Кейл
Сюжет фильма:
Фонд сохранения диких кошек находится в паре минут езды от Лондона. Здесь самое большое поголовье снежных барсов - не считая Азии. "Снежный барс в зелёном Лондоне" - документальная программа, в которой мы покажем не известные ранее кадры из жизни кошачьих. Программу ведёт автор фильмов о дикой природе Эдриан Кейл. В ней вы увидите, как в пригороде Лондона ведётся работа по спасению целого вида. Доктор Терри Мур - обыкновенный человек, который необыкновенно сильно любит снежных барсов. Между ним и кошками бесспорно существует некая таинственная связь, и методы его работы мало кто отважится назвать классическими.
Качество видео: HDTVRip 720p

Продолжительность: 7 х ~ 00:22:00
Формат: MKV
Видео: AVC (x264), 1280x720, ~4445 kbps
Аудио: русский, (дублированный), AC3 6.0, ~384.00 kbps

Код:

Общее
Уникальный идентификатор : 233106618953367416157801369882670042648 (0xAF5EB3A70C8BAB94887871F8F9928E18)
Полное имя : D:\Снежный барс в зелёном Лондоне\Snow Leopards of Leafy London. Episode 01 (Rus-AC3, HDTVRip-720p, h264) [2013].mkv
Формат : Matroska
Версия формата : Version 2
Размер файла : 755 Мбайт
Продолжительность : 21 м.
Общий поток : 4833 Кбит/сек
Название фильма : Snow Leopards of Leafy London EP01 (Rus-AC3, HDTVRip-720p, h264) [2013]
Дата кодирования : UTC 2013-11-16 08:22:22
Программа кодирования : mkvmerge v6.3.0 ('You can't stop me!') built on Jun 28 2013 20:09:41
Библиотека кодирования : libebml v1.3.0 + libmatroska v1.4.0
Обложка : Yes
Attachments : Cover

Видео
Идентификатор : 1
Формат : AVC
Формат/Информация : Advanced Video Codec
Профиль формата : High@L4
Параметр CABAC формата : Да
Параметр ReFrames формата : 4 кадра
Идентификатор кодека : V_MPEG4/ISO/AVC
Продолжительность : 21 м.
Битрейт : 4445 Кбит/сек
Ширина : 1280 пикселей
Высота : 720 пикселей
Соотношение сторон : 16:9
Режим частоты кадров : Постоянный
Частота кадров : 25,000 кадров/сек
Цветовое пространство : YUV
Субдискретизация насыщенности : 4:2:0
Битовая глубина : 8 бит
Тип развёртки : Прогрессивная
Бит/(Пиксели*Кадры) : 0.193
Размер потока : 680 Мбайт (90%)
Заголовок : Snow Leopards of Leafy London. Episode 1
Библиотека кодирования : x264 core 129 r2245 bc13772
Настройки программы : cabac=1 / ref=3 / deblock=1:0:0 / analyse=0x3:0x113 / me=umh / subme=10 / psy=1 / psy_rd=1.00:0.00 / mixed_ref=1 / me_range=26 / chroma_me=1 / trellis=2 / 8x8dct=1 / cqm=0 / deadzone=21,11 / fast_pskip=1 / chroma_qp_offset=-2 / threads=6 / lookahead_threads=1 / sliced_threads=0 / nr=0 / decimate=1 / interlaced=0 / bluray_compat=0 / constrained_intra=0 / bframes=3 / b_pyramid=2 / b_adapt=1 / b_bias=0 / direct=3 / weightb=1 / open_gop=0 / weightp=2 / keyint=250 / keyint_min=25 / scenecut=40 / intra_refresh=0 / rc_lookahead=40 / rc=2pass / mbtree=1 / bitrate=4445 / ratetol=1.0 / qcomp=0.60 / qpmin=0 / qpmax=69 / qpstep=4 / cplxblur=20.0 / qblur=0.5 / ip_ratio=1.40 / aq=1:1.00
Язык : English
Default : Да
Forced : Нет

Аудио
Идентификатор : 2
Формат : AC-3
Формат/Информация : Audio Coding 3
Расширение режима : CM (complete main)
Параметр Endianness формата : Big
Идентификатор кодека : A_AC3
Продолжительность : 21 м.
Вид битрейта : Постоянный
Битрейт : 384 Кбит/сек
Каналы : 6 каналов
Расположение каналов : Front: L C R, Side: L R, LFE
Частота : 48,0 КГц
Частота кадров : 31,250 кадров/сек (1536 spf)
Метод сжатия : С потерями
Размер потока : 60,0 Мбайт (8%)
Заголовок : Александр Гаврилин
Язык : Russian
Default : Да
Forced : Нет
picpicpicpicpic
Для увеличения картинки щелкните мышкой по превью

Этот торрент недоступен для скачивания без регистрации, однако доступен по публичной magnet-ссылке (источники с публичных трекеров). Перед использованием ссылки прочтите, пожалуйста Пользовательское соглашение, а также как можно дольше оставайтесь на раздаче! Для того, чтобы скачать сам торрент-файл (который видит больше источников), а также для того, чтобы поблагодарить релизера, вам необходимо зарегистрироваться. Если регистрироваться лень - вы можете также попробовать скачать релиз по нашим партнерским ссылкам ниже.

[underverse.su].t67929.torrent
Трекер: Зарегистрирован   [ 09.07.2016 07:06 ]  

Статус: проверено (by makkol at 09.07.2016 07:22)
Поблагодарили: пока никто не поблагодарил...
Тип торрента: публичный - доступные источники с открытых трекеров: 
Размер: 5,02 GB (занимает 1,15 DVDR, для записи нужно 2 болванки DVDR/RW)
 
 

Яндекс.Метрика powered by Sphinx


В Н И М А Н И Е
Сайт не распространяет и не хранит электронные версии произведений, а лишь бесплатно и без коммерческой выгоды (не требуя взамен платы,
SMS и т.д.) предоставляет доступ к создаваемому пользователями каталогу ссылок на торрент-файлы, которые содержат только списки хеш-сумм.
Убедительная просьба с жалобами обращаться напрямую к пользователю, разместившему торрент файл.

Вверх