Loading...
Error

Преступники Британии: разбойники, пираты и бандиты / Britain's Outlaws: Highwaymen, Pirates and Rogues (1-3 серии из 3) / (Энди Холл) [2015 г., документальный, познавательный, история, HDTVRip 720p] Dub

Статистика раздачи
Размер:  3,93 GB   |    Зарегистрирован:  4 месяца 14 дней   |    Скачан:  0 раз

Полного источника не было: 3 месяца 29 дней

Сидов:  0  |  0 KB/s  ]   Личеров:  0  |  0 KB/s  ]

* - сиды/пиры с внешних источников

   
 
Автор Сообщение

ARI71 Пол:Муж

07-Июл-2016 19:24

Преступники Британии: разбойники, пираты и бандиты / Britain's Outlaws: Highwaymen, Pirates and Rogues (1-3 серии из 3)


Год выпуска: 2015
Жанр: документальный, познавательный, история
Страна: Великобритания ВВС
Режиссер: Энди Холл
Сюжет фильма:
Несколько исторических фигур Британии запомнились людям как беззаконники. Благодаря своим дерзким выходкам и романтике жизни вне закона разбойники, удалые пираты, неуловимые городские воры и бандиты стали самыми известными антигероями своего времени. Их боялись богачи, ими восхищались бедные, а писатели посвящали им книги. В этом трехсерийном фильме доктор исторических наук Сэм Уиллис отправится в путешествие по дорогам, морям и кривым улочкам, чтобы исследовать тайную жизнь разбойников, пиратов и бандитов Британии XVII-XVIII веков. Сэм покажет нам, что беззаконники - это не просто изгнанники, а ещё и продукт своего времени, созданный ключевыми социальными событиями. В каждом выпуске Сэм будет подробно рассказывать не только о каком-то определённом персонаже, а о целой эре, благодаря чему мы получим более точную картину преступной жизни XVII-XVIII веков.
Качество видео: HDTVRip 720p

Продолжительность: 3 х ~ 00:59:15
Формат: MKV
Видео: AVC (x264), 1280x720, ~3000 kbps
Аудио: русский, (дублированный), AC3 2.0, ~192.00 kbps
1. Разбойники / Highwaymen
Доктор Сэм Уиллис расскажет нам о новом виде преступников-джентльменов, о разбойниках с большой дороги. Их романтизировали больше всего, эти пафосные гангстеры стали настоящим проклятием дорог.

2. Пираты / Pirates
Доктор Сэм Уиллис отправляется покорять моря, как это делали удалые пираты в свой золотой XVIII век. Он постарается узнать подробнее, что именно делало их самыми разыскиваемыми преступниками в мире.

3. Мошенники / Rogues
В этой серии доктор Сэм Уиллис прольёт нам свет на городскую чуму XVIII века, о мошенниках всех мастей - об обольстителях, бандитах и ворах.

Код:

Общее
Уникальный идентификатор : 255094790258449010769307435965102932945 (0xBFE97832912DF8398029906CD9C7C3D1)
Полное имя : D:\Преступники.Британии.2015.HDTVRip.720p.x264.alf62\Преступники.Британии.(1.серия.из.3).Разбойники.2015.HDTVRip.720p.x264.alf62.mkv
Формат : Matroska
Версия формата : Version 4 / Version 2
Размер файла : 1,32 Гбайт
Продолжительность : 59 м.
Общий поток : 3185 Кбит/сек
Дата кодирования : UTC 2016-07-06 18:23:27
Программа кодирования : mkvmerge v6.0.0 ('Coming Up For Air') built on Jan 20 2013 09:52:00
Библиотека кодирования : libebml v1.3.0 + libmatroska v1.4.0

Видео
Идентификатор : 1
Формат : AVC
Формат/Информация : Advanced Video Codec
Профиль формата : High@L4.1
Параметр CABAC формата : Да
Параметр ReFrames формата : 4 кадра
Идентификатор кодека : V_MPEG4/ISO/AVC
Продолжительность : 59 м.
Битрейт : 3000 Кбит/сек
Ширина : 1280 пикселей
Высота : 720 пикселей
Соотношение сторон : 16:9
Режим частоты кадров : Постоянный
Частота кадров : 25,000 кадров/сек
Цветовое пространство : YUV
Субдискретизация насыщенности : 4:2:0
Битовая глубина : 8 бит
Тип развёртки : Прогрессивная
Бит/(Пиксели*Кадры) : 0.130
Размер потока : 1,21 Гбайт (92%)
Библиотека кодирования : x264 core 142 r2479 dd79a61
Настройки программы : cabac=1 / ref=1 / deblock=1:0:0 / analyse=0x3:0x3 / me=dia / subme=1 / psy=1 / psy_rd=1.00:0.00 / mixed_ref=0 / me_range=16 / chroma_me=1 / trellis=0 / 8x8dct=1 / cqm=0 / deadzone=21,11 / fast_pskip=1 / chroma_qp_offset=0 / threads=3 / lookahead_threads=1 / sliced_threads=0 / nr=0 / decimate=1 / interlaced=0 / bluray_compat=0 / constrained_intra=0 / bframes=3 / b_pyramid=2 / b_adapt=1 / b_bias=0 / direct=1 / weightb=1 / open_gop=0 / weightp=1 / keyint=250 / keyint_min=25 / scenecut=40 / intra_refresh=0 / rc_lookahead=0 / rc=abr / mbtree=0 / bitrate=3000 / ratetol=1.0 / qcomp=0.60 / qpmin=0 / qpmax=69 / qpstep=4 / vbv_maxrate=62500 / vbv_bufsize=78125 / nal_hrd=none / filler=0 / ip_ratio=1.40 / pb_ratio=1.30 / aq=1:1.00
Default : Да
Forced : Нет
Цветовой диапазон : Limited
Основные цвета : BT.709
Характеристики трансфера : BT.709
Коэффициенты матрицы : BT.709

Аудио
Идентификатор : 2
Формат : AC-3
Формат/Информация : Audio Coding 3
Расширение режима : CM (complete main)
Параметр Endianness формата : Big
Идентификатор кодека : A_AC3
Продолжительность : 59 м.
Вид битрейта : Постоянный
Битрейт : 192 Кбит/сек
Каналы : 2 канала
Расположение каналов : Front: L R
Частота : 48,0 КГц
Частота кадров : 31,250 кадров/сек (1536 spf)
Метод сжатия : С потерями
Задержка видео : 3 с. 200 мс.
Размер потока : 81,4 Мбайт (6%)
Default : Да
Forced : Нет
picpicpicpicpic
Для увеличения картинки щелкните мышкой по превью

Этот торрент недоступен для скачивания без регистрации, однако доступен по публичной magnet-ссылке (источники с публичных трекеров). Перед использованием ссылки прочтите, пожалуйста Пользовательское соглашение, а также как можно дольше оставайтесь на раздаче! Для того, чтобы скачать сам торрент-файл (который видит больше источников), а также для того, чтобы поблагодарить релизера, вам необходимо зарегистрироваться. Если регистрироваться лень - вы можете также попробовать скачать релиз по нашим партнерским ссылкам ниже.

[underverse.su].t68281.torrent
Трекер: Зарегистрирован   [ 21.07.2016 06:21 ]  

Статус: проверено (by makkol at 22.07.2016 11:17)
Поблагодарили: пока никто не поблагодарил...
Тип торрента: публичный - доступные источники с открытых трекеров: 
Размер: 3,93 GB (занимает 0,9 DVDR, для записи нужно 1 болванка DVDR/RW)
 
 
Похожие темы
Форум Тема Автор Торрент Отв. Посл. сооб.
Зарубежное кино [DVDRip, Low-Res HDRip, и т.д.] Преступник / Offender (Рон Скальпелло) [2012 г., триллер, HDRip] VO (den904) 90ytr90
3 | 1

1 | 1459

36

05.01.2013 04:39

Зарубежное кино [DVDRip, Low-Res HDRip, и т.д.] Преступник / Offender (Рон Скальпелло) [2012, триллер, драма, криминал, HDRip] VO (den904) Garnett
1 | 0

0 | 1200

10

07.01.2013 18:05

T Зарубежное кино [DVDRip, Low-Res HDRip, и т.д.] Преступник / Criminal (Ариэль Вромен / Ariel Vromen) [2016 г., фантастика, боевик, триллер, драма, криминал, детектив, BDRip-AVC] Dub (iTunes) + Original (Eng) + Sub (Eng) 90ytr90
131 | 11

0 | 63

8

07.11.2016 09:10

Зарубежное кино [DVDRip, Low-Res HDRip, и т.д.] Преступник / Criminal (Ариэль Вромен / Ariel Vromen) [2016 г., фантастика, боевик, триллер, драма, криминал, детектив, BDRip-AVC] AVO (Есарев) + Sub (Eng) 90ytr90
64 | 5

0 | 190

3

22.10.2016 05:50

T Зарубежное кино [DVDRip, Low-Res HDRip, и т.д.] Преступник / Criminal (Ариэль Вромен / Ariel Vromen) [2016 г., фантастика, боевик, триллер, драма, криминал, детектив, WEB-DLRip] Dub (iTunes) 90ytr90
1486 | 27

0 | 705

48

12.07.2016 16:35

T Зарубежное кино [DVDRip, Low-Res HDRip, и т.д.] Преступник / Criminal (Ариэль Вромен / Ariel Vromen) [2016 г., фантастика, боевик, триллер, драма, криминал, детектив, BDRip] Dub (iTunes) 90ytr90
231 | 3

0 | 502

9

17.08.2016 17:57

T Зарубежное кино [DVDRip, Low-Res HDRip, и т.д.] Преступник / Criminal (Ариэль Вромен / Ariel Vromen) [2016 г., фантастика, боевик, триллер, драма, криминал, детектив, BDRip-AVC] Dub (iTunes) 90ytr90
41 | 1

0 | 480

5

17.08.2016 18:04

# Зарубежное кино [DVDRip, Low-Res HDRip, и т.д.] Преступник / Criminal (Ариэль Вромен / Ariel Vromen) [2016 г., фантастика, боевик, триллер, драма, криминал, детектив, BDRip-AVC] Dub (iTunes) + Original (Eng) + Sub (Eng) 90ytr90
128 | 0

0 | 202

4

17.08.2016 18:11

Зарубежное кино [DVDRip, Low-Res HDRip, и т.д.] Преступник / Criminal (Ариэль Вромен / Ariel Vromen) [2016 г., фантастика, боевик, триллер, драма, криминал, детектив, HDRip] AVO (Есарев) 90ytr90
53 | 4

0 | 327

8

30.08.2016 15:18

BBC Преступники Британии: разбойники, пираты и бандиты / Britain's Outlaws: Highwaymen, Pirates and Rogues (1-3 серии из 3) / (Энди Холл) [2015 г., документальный, познавательный, история, HDTVRip] Dub ARI71
4 | 3

1 | 1040

0

13.07.2016 15:48



Последний раз редактировалось: ARI71 (21.07.2016 06:21), всего редактировалось 3 раз(а)

ARI71 Пол:Муж

13-Июл-2016 15:46

Добавлена заключительная 3-я серия данного сериала. Обновите торрент-файл! На этом обновление раздачи завершено!!

Яндекс.Метрика powered by Sphinx


В Н И М А Н И Е
Сайт не распространяет и не хранит электронные версии произведений, а лишь бесплатно и без коммерческой выгоды (не требуя взамен платы,
SMS и т.д.) предоставляет доступ к создаваемому пользователями каталогу ссылок на торрент-файлы, которые содержат только списки хеш-сумм.
Убедительная просьба с жалобами обращаться напрямую к пользователю, разместившему торрент файл.

Вверх