Loading...
Error

Не менее странно, чем любовь / No Stranger Than Love (Ник Уэрнэм) [2015 г., мелодрама, комедия, WEB-DLRip] MVO

Статистика раздачи
Размер:  1,35 GB   |    Зарегистрирован:  4 месяца 28 дней   |    Скачан:  7 раз

Полного источника не было: 3 месяца 4 дня

Сидов:  0  |  0 KB/s  ]   Личеров:  0  |  0 KB/s  ]

* - сиды/пиры с внешних источников

   
 
Автор Сообщение

makkol Пол:Муж

07-Июл-2016 13:58

Не менее странно, чем любовь / No Stranger Than Love


Год выпуска: 2015
Жанр: мелодрама, комедия
Производство: Канада [Innis Lake Entertainment, Pangaea Pictures]
Режиссер: Ник Уэрнэм
В ролях: Элисон Бри, Джастин Чэтвин, Колин Хэнкс, Марк Форвард, Кристофер Корделл, Лиза Берри, Робин Брюле, Джулиан ДеЗотти, Джейн Иствуд, Дилан Эверетт
Сюжет фильма:
Милую, обаятельную и добрую девушку Люси Шеррингтон обожает весь городок. Но, несмотря на это, девушка испытывает душевную пустоту. Ей не хватает чего-то. Однажды она поняла чего - любви. Когда она встретила Клинта, то, казалось, что теперь все будет хорошо. Однако в тот момент, когда парень признается Люси в любви, он проваливается в черную дыру, которая внезапно образовалась в полу гостиной девушки. С того момента никто не знает куда он пропал. В исчезновении Клинта обвиняют одного парня, который должен теперь найти его, чтобы доказать свою невиновность. Этот парень обращается за помощью к Люси. Они вместе пытаются разобраться в случившемся...

  • Мировая премьера: 30 апреля 2015


Качество видео: WEB-DLRip

Продолжительность: 01:32:49
Формат: AVI
Видео: XviD, 720x304 (2.35:1), 23.976 fps, 1651 kbps
Аудио: русский, любительский многоголосый закадровый (Parovoz Production), AC3 5.1, 48 kHz, 384 kbps

Код:

Формат                                   : AVI
Формат/Информация                        : Audio Video Interleave
Размер файла                             : 1,35 Гбайт
Продолжительность                        : 1 ч. 30 м.
Общий поток                              : 2128 Кбит/сек
Программа кодирования                    : VirtualDubMod 1.5.10.3 | www.virtualdub-fr.org || (build 2550/release)
Библиотека кодирования                   : VirtualDubMod build 2550/release

Видео
Идентификатор                            : 0
Формат                                   : MPEG-4 Visual
Профиль формата                          : Advanced Simple@L5
Параметр BVOP формата                    : 2
Параметр QPel формата                    : Нет
Параметр GMC формата                     : Без точки перехода
Параметр матрицы формата                 : Выборочная
Идентификатор кодека                     : XVID
Идентификатор кодека/Подсказка           : XviD
Продолжительность                        : 1 ч. 30 м.
Битрейт                                  : 1651 Кбит/сек
Ширина                                   : 720 пикселей
Высота                                   : 304 пикселя
Соотношение сторон                       : 2,35:1
Частота кадров                           : 23,976 (23976/1000) кадра/сек
Цветовое пространство                    : YUV
Субдискретизация насыщенности            : 4:2:0
Битовая глубина                          : 8 бит
Тип развёртки                            : Прогрессивная
Метод сжатия                             : С потерями
Бит/(Пиксели*Кадры)                      : 0.315
Размер потока                            : 1,05 Гбайт (78%)
Библиотека кодирования                   : XviD 1.2.1 (UTC 2008-12-04)

Аудио
Идентификатор                            : 1
Формат                                   : AC-3
Формат/Информация                        : Audio Coding 3
Расширение режима                        : CM (complete main)
Параметр Endianness формата              : Big
Идентификатор кодека                     : 2000
Продолжительность                        : 1 ч. 30 м.
Вид битрейта                             : Постоянный
Битрейт                                  : 384 Кбит/сек
Каналы                                   : 6 каналов
Расположение каналов                     : Front: L C R, Side: L R, LFE
Частота                                  : 48,0 КГц
Частота кадров                           : 31,250 кадров/сек (1536 spf)
Метод сжатия                             : С потерями
Размер потока                            : 249 Мбайт (18%)
Выравнивание                             : Разделение по промежуткам
Релиз без рекламы


picpicpicpicpic
Для увеличения картинки щелкните мышкой по превью

Этот торрент недоступен для скачивания без регистрации, однако доступен по публичной magnet-ссылке (источники с публичных трекеров). Перед использованием ссылки прочтите, пожалуйста Пользовательское соглашение, а также как можно дольше оставайтесь на раздаче! Для того, чтобы скачать сам торрент-файл (который видит больше источников), а также для того, чтобы поблагодарить релизера, вам необходимо зарегистрироваться. Если регистрироваться лень - вы можете также попробовать скачать релиз по нашим партнерским ссылкам ниже.

[underverse.su].t67881.torrent
Трекер: Зарегистрирован   [ 07.07.2016 13:58 ]  

Статус: проверено (by makkol at 10.07.2016 23:15)
Поблагодарили: пока никто не поблагодарил...
Тип торрента: публичный - доступные источники с открытых трекеров: 
Размер: 1,35 GB (занимает 0,31 DVDR, для записи нужно 1 болванка DVDR/RW)
 
 
Похожие темы
Форум Тема Автор Торрент Отв. Посл. сооб.
Зарубежное кино [HDDVDRip / BDRip / WEB-DL / HDTV 1080/720р] Не менее странно, чем любовь / No Stranger Than Love (Ник Уэрнэм) [2015 г., мелодрама, комедия, WEB-DL 1080p] MVO + Original makkol
7 | 0

0 | 267

3

07.07.2016 14:05


Яндекс.Метрика powered by Sphinx


В Н И М А Н И Е
Сайт не распространяет и не хранит электронные версии произведений, а лишь бесплатно и без коммерческой выгоды (не требуя взамен платы,
SMS и т.д.) предоставляет доступ к создаваемому пользователями каталогу ссылок на торрент-файлы, которые содержат только списки хеш-сумм.
Убедительная просьба с жалобами обращаться напрямую к пользователю, разместившему торрент файл.

Вверх