Loading...
Error

Анатолий Собчак. Охота на мэра [2015 г., документальный, история, политика, биография, IPTVRip]

Статистика раздачи
Размер:  654 MB   |    Зарегистрирован:  4 месяца 30 дней   |    Скачан:  3 раза

Полного источника не было: 3 месяца 30 дней

Сидов:  0  |  0 KB/s  ]   Личеров:  0  |  0 KB/s  ]

* - сиды/пиры с внешних источников

   
 
Автор Сообщение

ARI71 Пол:Муж

07-Июл-2016 07:06

Анатолий Собчак. Охота на мэра


Год выпуска: 2015
Жанр: документальный, история, политика, биография
Страна: Россия Пятый канал
В ролях: Анатолий Собчак
Сюжет фильма:
Документальный фильм к 15-летию со дня смерти А. А. Собчака. В Петербурге вспоминают Анатолия Собчака – первого мэра северной столицы. Его не стало ровно 15 лет назад. Споры о том, что за человек был сам Собчак, какова его роль в истории – не утихают до сих пор. Для одних он символ демократии и человек, который в августе 1991 года не допустил повторения трагических московских событий. Другим Собчак запомнился авторитарным правителем, нетерпимым к чужому мнению и ярым антикоммунистом. Но большинство горожан будут всегда помнить его уже потому, что именно Собчак вернул Ленинграду его историческое имя – Санкт-Петербург. Лидером оппозиции Анатолию Собчаку стать так и не удалось. Бывшего мэра жестко критиковали в прессе, и он вынужден был покинуть город – уехал в Париж, где читал лекции о России французским студентам. Вернувшись на родину, попасть в большую политику вновь не получилось. Во время предвыборной поездки в Калининград здоровье Собчака резко ухудшилось, и спустя несколько дней он ушел из жизни.
Качество видео: IPTVRip

Продолжительность: 00:44:53
Формат: AVI
Видео: XviD, 688x528, ~1900 kbps
Аудио: русский, (оригинал), MP3 2.0, ~128.00 kbps

Код:

Общее
Полное имя : D:\Анатолий Собчак.Охота на мэра.2015.IPTVRip.avi
Формат : AVI
Формат/Информация : Audio Video Interleave
Размер файла : 654 Мбайт
Продолжительность : 44 м.
Общий поток : 2038 Кбит/сек
Программа кодирования : VirtualDubMod 1.5.10.3 | www.virtualdub-fr.org || (build 2550/release)
Библиотека кодирования : VirtualDubMod build 2550/release

Видео
Идентификатор : 0
Формат : MPEG-4 Visual
Профиль формата : Advanced Simple@L5
Параметр BVOP формата : 2
Параметр QPel формата : Нет
Параметр GMC формата : Без точки перехода
Параметр матрицы формата : Default (MPEG)
Идентификатор кодека : XVID
Идентификатор кодека/Подсказка : XviD
Продолжительность : 44 м.
Битрейт : 1900 Кбит/сек
Ширина : 688 пикселей
Высота : 528 пикселей
Соотношение сторон : 4:3
Частота кадров : 25,000 кадров/сек
Цветовое пространство : YUV
Субдискретизация насыщенности : 4:2:0
Битовая глубина : 8 бит
Тип развёртки : Прогрессивная
Метод сжатия : С потерями
Бит/(Пиксели*Кадры) : 0.209
Размер потока : 610 Мбайт (93%)
Библиотека кодирования : XviD 1.2.1 (UTC 2008-12-04)

Аудио
Идентификатор : 1
Формат : MPEG Audio
Версия формата : Version 1
Профиль формата : Layer 3
Идентификатор кодека : 55
Идентификатор кодека/Подсказка : MP3
Продолжительность : 44 м.
Вид битрейта : Постоянный
Битрейт : 128 Кбит/сек
Каналы : 2 канала
Частота : 44,1 КГц
Метод сжатия : С потерями
Размер потока : 41,1 Мбайт (6%)
Выравнивание : Разделение по промежуткам
Продолжительность промежутка : 40 мс. (1,00 видеокадр)
Время предзагрузки промежутка : 500 мс.
Библиотека кодирования : LAME3.99r
Настройки программы : -m s -V 4 -q 2 -lowpass 17 -b 128
Релиз группы:

picpicpicpicpic
Для увеличения картинки щелкните мышкой по превью

Этот торрент недоступен для скачивания без регистрации, однако доступен по публичной magnet-ссылке (источники с публичных трекеров). Перед использованием ссылки прочтите, пожалуйста Пользовательское соглашение, а также как можно дольше оставайтесь на раздаче! Для того, чтобы скачать сам торрент-файл (который видит больше источников), а также для того, чтобы поблагодарить релизера, вам необходимо зарегистрироваться. Если регистрироваться лень - вы можете также попробовать скачать релиз по нашим партнерским ссылкам ниже.

[underverse.su].t67873.torrent
Трекер: Зарегистрирован   [ 07.07.2016 07:06 ]  

Статус: проверено (by makkol at 07.07.2016 10:49)
Поблагодарили: пока никто не поблагодарил...
Тип торрента: публичный - доступные источники с открытых трекеров: 
Размер: 654 MB (занимает 0,15 DVDR, для записи нужно 1 болванка DVDR/RW)
 
 
Похожие темы
Форум Тема Автор Торрент Отв. Посл. сооб.
Собрания сочинений Анатолий Степанов - Сборник произведений [10 книг] [1989-2003 г., детектив, сборник, FB2] RUS Паукан
0 | 1

0 | 640

7

10.11.2014 15:07


Яндекс.Метрика powered by Sphinx


В Н И М А Н И Е
Сайт не распространяет и не хранит электронные версии произведений, а лишь бесплатно и без коммерческой выгоды (не требуя взамен платы,
SMS и т.д.) предоставляет доступ к создаваемому пользователями каталогу ссылок на торрент-файлы, которые содержат только списки хеш-сумм.
Убедительная просьба с жалобами обращаться напрямую к пользователю, разместившему торрент файл.

Вверх