Loading...
Error

(Pop) Iowa - Export (2014) [FLAC (Image+.Cue), Lossless]

Статистика раздачи
Размер:  305 MB   |    Зарегистрирован:  1 год 11 месяцев   |    Скачан:  7 раз

Полного источника не было: 1 месяц 1 день

Сидов:  0  |  0 KB/s  ]   Личеров:  0  |  0 KB/s  ]

* - сиды/пиры с внешних источников

   
 
Автор Сообщение

Бишеп Пол:Муж

06-Июл-2016 18:07

Iowa - Export

Жанр: Pop
Год выпуска: 2014
Источник: CD
Производитель диска: United Music Group - UMGCD14-260
Аудиокодек: FLAC
Тип рипа: Image+.CUE
Битрейт аудио: lossless
Продолжительность: 00:43:20


Треклист:
01. Я сошла с ума
02. Мама
03. Радость
04. Улыбайся
05. Одно и то же
06. Простая песня
07. Маршрутка
08. Ищу мужа
09. Невеста
10. Весна
11. Улыбайся (Ivan Spell Remix)
12. Невеста (Speen Beatz Remix)

Код:

Exact Audio Copy V1.0 beta 1 from 15. November 2010

EAC extraction logfile from 11. February 2015, 0:13

Iowa / Export

Used drive  : PLEXTOR DVDR   PX-760A   Adapter: 4  ID: 2

Read mode               : Secure
Utilize accurate stream : Yes
Defeat audio cache      : Yes
Make use of C2 pointers : No

Read offset correction                      : 30
Overread into Lead-In and Lead-Out          : No
Fill up missing offset samples with silence : Yes
Delete leading and trailing silent blocks   : No
Null samples used in CRC calculations       : Yes
Used interface                              : Native Win32 interface for Win NT & 2000

Used output format : Internal WAV Routines
Sample format      : 44.100 Hz; 16 Bit; Stereo

TOC of the extracted CD

     Track |   Start  |  Length  | Start sector | End sector
    ---------------------------------------------------------
        1  |  0:00.00 |  4:00.57 |         0    |    18056   
        2  |  4:00.57 |  4:39.47 |     18057    |    39028   
        3  |  8:40.29 |  3:23.02 |     39029    |    54255   
        4  | 12:03.31 |  3:40.07 |     54256    |    70762   
        5  | 15:43.38 |  3:40.39 |     70763    |    87301   
        6  | 19:24.02 |  3:26.21 |     87302    |   102772   
        7  | 22:50.23 |  3:13.04 |    102773    |   117251   
        8  | 26:03.27 |  3:27.73 |    117252    |   132849   
        9  | 29:31.25 |  3:41.19 |    132850    |   149443   
       10  | 33:12.44 |  3:37.18 |    149444    |   165736   
       11  | 36:49.62 |  3:10.56 |    165737    |   180042   
       12  | 40:00.43 |  3:19.27 |    180043    |   194994   

Range status and errors

Selected range

     Filename F:\FLAC (bruk67)\Iowa - Export - 2014 (FLAC)\Iowa - Export.wav

     Peak level 94.2 %
     Extraction speed 0.1 X
     Range quality 100.0 %
     Test CRC E179E854
     Copy CRC E179E854
     Copy OK

No errors occurred

 
AccurateRip summary
 
Track  1  accurately ripped (confidence 1)  [931C0117]
Track  2  accurately ripped (confidence 1)  [841EC489]
Track  3  accurately ripped (confidence 1)  [C85AADFD]
Track  4  accurately ripped (confidence 1)  [19050696]
Track  5  accurately ripped (confidence 1)  [4A8D0016]
Track  6  accurately ripped (confidence 1)  [6E0BFA2E]
Track  7  accurately ripped (confidence 1)  [8F6D034C]
Track  8  accurately ripped (confidence 1)  [6FA69B28]
Track  9  accurately ripped (confidence 1)  [45C3139C]
Track 10  accurately ripped (confidence 1)  [9573E40D]
Track 11  accurately ripped (confidence 1)  [52853F20]
Track 12  accurately ripped (confidence 1)  [589EC035]
 
All tracks accurately ripped

End of status report

==== Log checksum 7B4EC751142652C78EACC1DA88C691C6257A29F57792AFB734D086773EEA6C95 ====

Код:

REM GENRE Pop
REM DATE 2014
REM DISCID 960A270C
REM COMMENT "ExactAudioCopy v1.0b1"
PERFORMER "Iowa"
TITLE "Export"
FILE "Iowa - Export.flac" WAVE
  TRACK 01 AUDIO
    TITLE "Я сошла с ума"
    PERFORMER "Iowa"
    INDEX 01 00:00:00
  TRACK 02 AUDIO
    TITLE "Мама"
    PERFORMER "Iowa"
    INDEX 01 04:00:57
  TRACK 03 AUDIO
    TITLE "Радость"
    PERFORMER "Iowa"
    INDEX 01 08:40:29
  TRACK 04 AUDIO
    TITLE "Улыбайся"
    PERFORMER "Iowa"
    INDEX 01 12:03:31
  TRACK 05 AUDIO
    TITLE "Одно и то же"
    PERFORMER "Iowa"
    INDEX 01 15:43:38
  TRACK 06 AUDIO
    TITLE "Простая песня"
    PERFORMER "Iowa"
    INDEX 01 19:24:02
  TRACK 07 AUDIO
    TITLE "Маршрутка"
    PERFORMER "Iowa"
    INDEX 01 22:50:23
  TRACK 08 AUDIO
    TITLE "Ищу мужа"
    PERFORMER "Iowa"
    INDEX 01 26:03:27
  TRACK 09 AUDIO
    TITLE "Невеста"
    PERFORMER "Iowa"
    INDEX 01 29:31:25
  TRACK 10 AUDIO
    TITLE "Весна"
    PERFORMER "Iowa"
    INDEX 01 33:12:44
  TRACK 11 AUDIO
    TITLE "Улыбайся (Ivan Spell Remix)"
    PERFORMER "Iowa"
    INDEX 01 36:49:62
  TRACK 12 AUDIO
    TITLE "Невеста (Speen Beatz Remix)"
    PERFORMER "Iowa"
    INDEX 01 40:00:43

Этот торрент недоступен для скачивания без регистрации, однако доступен по публичной magnet-ссылке (источники с публичных трекеров). Перед использованием ссылки прочтите, пожалуйста Пользовательское соглашение, а также как можно дольше оставайтесь на раздаче! Для того, чтобы скачать сам торрент-файл (который видит больше источников), а также для того, чтобы поблагодарить релизера, вам необходимо зарегистрироваться. Если регистрироваться лень - вы можете также попробовать скачать релиз по нашим партнерским ссылкам ниже. Кроме того, зарегистрированным пользователям не показывается всплывающая реклама при скачивании.

[underverse.su].t67849.torrent
Трекер: Зарегистрирован   [ 06.07.2016 18:07 ]  

Статус: проверено (by Бишеп at 06.07.2016 18:07)
Поблагодарили: пока никто не поблагодарил...
Тип торрента: публичный - доступные источники с открытых трекеров: 
Размер: 305 MB (занимает 0,07 DVDR, для записи нужно 1 болванка DVDR/RW)
 
 

Яндекс.Метрика powered by Sphinx


В Н И М А Н И Е
Сайт не распространяет и не хранит электронные версии произведений, а лишь бесплатно и без коммерческой выгоды (не требуя взамен платы,
SMS и т.д.) предоставляет доступ к создаваемому пользователями каталогу ссылок на торрент-файлы, которые содержат только списки хеш-сумм.
Убедительная просьба с жалобами обращаться напрямую к пользователю, разместившему торрент файл.

Вверх