Loading...
Error

Дикая природа Нидерландов / De Nieuwe Wildernis (1-3 серии из 3) / (Рубен Смит, Марк Веркерк) [2013 г., документальный, флора, фауна, HDTVRip 720p] VO + Original (Eng)

Статистика раздачи
Размер:  4,18 GB   |    Зарегистрирован:  5 месяцев 2 дня   |    Скачан:  1 раз

Полного источника не было: 5 месяцев

Сидов:  0  |  0 KB/s  ]   Личеров:  0  |  0 KB/s  ]

* - сиды/пиры с внешних источников

   
 
Автор Сообщение

ARI71 Пол:Муж

06-Июл-2016 16:03

Дикая природа Нидерландов / De Nieuwe Wildernis (1-3 серии из 3)


Год выпуска: 2013
Жанр: документальный, флора, фауна
Страна: Нидерланды EMS Films
Перевод: русский, одноголосый закадровый (профессиональный)
Режиссер: Рубен Смит, Марк Веркерк
Сюжет фильма:
В получасе езды от Амстердама находится заповедник Оствардерсплассе. Территория природоохранной зоны — ареал обитания различных видов животных. Фауна национального парка представлена во всем великолепии. Тут есть близкие родственники тарпанов — вымершего вида, дикие лошади и туры. В заповеднике прекрасные условия для проживания оленей и быков Хека. В последние несколько десятилетий тут прижились редчайшие виды птиц, например, орланы-белохвосты. На небольшом островке земли удивительное многообразие представителей фауны…


Качество видео: HDTVRip 720p

Продолжительность: 3 х ~00:49:00
Формат: MKV
Видео: AVC (x264), 1280x720 (16:9), 25 fps, High@L4.1 ~3780 kbps avg, 0.164 bit/pixel
Аудио #1: Русский, 48 kHz, МР2, 2 ch, ~128.00 kbps avg
Аудио #2: Английский, 48 kHz, МР2, 2 ch, ~128.00 kbps avg
(тех. данные всех серий идентичны)
01. Весна - новая жизнь / Lente nieuw leven
02. Лето - пора взрослеть / Zomer op eigen benen
03. Выживание осенью и зимой / Herfst / Winter oferleven

Код:

Общее
Уникальный идентификатор : 198162129942588796410953316208641402544 (0x9514A353500344778E32E2AE825966B0)
Полное имя : D:\Дикая природа Нидерландов\Дикая природа Нидерландов_1_720p.mkv
Формат : Matroska
Версия формата : Version 4 / Version 2
Размер файла : 1,40 Гбайт
Продолжительность : 49 м.
Общий поток : 4038 Кбит/сек
Дата кодирования : UTC 2016-06-29 20:09:41
Программа кодирования : mkvmerge v8.9.0 ('Father Daughter') 64bit
Библиотека кодирования : libebml v1.3.3 + libmatroska v1.4.4

Видео
Идентификатор : 1
Формат : AVC
Формат/Информация : Advanced Video Codec
Профиль формата : High@L4.1
Параметр CABAC формата : Да
Параметр ReFrames формата : 8 кадров
Идентификатор кодека : V_MPEG4/ISO/AVC
Продолжительность : 49 м.
Битрейт : 3780 Кбит/сек
Ширина : 1280 пикселей
Высота : 720 пикселей
Соотношение сторон : 16:9
Режим частоты кадров : Постоянный
Частота кадров : 25,000 кадров/сек
Цветовое пространство : YUV
Субдискретизация насыщенности : 4:2:0
Битовая глубина : 8 бит
Тип развёртки : Прогрессивная
Бит/(Пиксели*Кадры) : 0.164
Размер потока : 1,31 Гбайт (94%)
Библиотека кодирования : x264 core 148 r2638 7599210
Настройки программы : cabac=1 / ref=8 / deblock=1:-3:-3 / analyse=0x3:0x133 / me=umh / subme=11 / psy=1 / psy_rd=1.00:0.00 / mixed_ref=1 / me_range=32 / chroma_me=1 / trellis=2 / 8x8dct=1 / cqm=0 / deadzone=21,11 / fast_pskip=1 / chroma_qp_offset=-2 / threads=12 / lookahead_threads=2 / sliced_threads=0 / nr=0 / decimate=0 / interlaced=0 / bluray_compat=0 / constrained_intra=0 / bframes=8 / b_pyramid=2 / b_adapt=2 / b_bias=0 / direct=3 / weightb=1 / open_gop=0 / weightp=2 / keyint=250 / keyint_min=25 / scenecut=40 / intra_refresh=0 / rc_lookahead=50 / rc=2pass / mbtree=1 / bitrate=3780 / ratetol=1.0 / qcomp=0.60 / qpmin=0 / qpmax=69 / qpstep=4 / cplxblur=20.0 / qblur=0.5 / ip_ratio=1.40 / aq=1:1.00
Язык : English
Default : Да
Forced : Нет

Аудио #1
Идентификатор : 2
Формат : MPEG Audio
Версия формата : Version 1
Профиль формата : Layer 2
Идентификатор кодека : A_MPEG/L2
Идентификатор кодека/Подсказка : MP2
Продолжительность : 49 м.
Вид битрейта : Постоянный
Битрейт : 128 Кбит/сек
Каналы : 2 канала
Частота : 48,0 КГц
Частота кадров : 41,667 кадра/сек (1152 spf)
Метод сжатия : С потерями
Размер потока : 45,5 Мбайт (3%)
Язык : Russian
Default : Да
Forced : Нет

Аудио #2
Идентификатор : 3
Формат : MPEG Audio
Версия формата : Version 1
Профиль формата : Layer 2
Идентификатор кодека : A_MPEG/L2
Идентификатор кодека/Подсказка : MP2
Продолжительность : 49 м.
Вид битрейта : Постоянный
Битрейт : 128 Кбит/сек
Каналы : 2 канала
Частота : 48,0 КГц
Частота кадров : 41,667 кадра/сек (1152 spf)
Метод сжатия : С потерями
Размер потока : 45,5 Мбайт (3%)
Язык : English
Default : Нет
Forced : Нет
picpicpicpicpic
Для увеличения картинки щелкните мышкой по превью

Этот торрент недоступен для скачивания без регистрации, однако доступен по публичной magnet-ссылке (источники с публичных трекеров). Перед использованием ссылки прочтите, пожалуйста Пользовательское соглашение, а также как можно дольше оставайтесь на раздаче! Для того, чтобы скачать сам торрент-файл (который видит больше источников), а также для того, чтобы поблагодарить релизера, вам необходимо зарегистрироваться. Если регистрироваться лень - вы можете также попробовать скачать релиз по нашим партнерским ссылкам ниже.

[underverse.su].t67839.torrent
Трекер: Зарегистрирован   [ 06.07.2016 16:03 ]  

Статус: проверено (by 90ytr90 at 06.07.2016 19:09)
Поблагодарили: пока никто не поблагодарил...
Тип торрента: публичный - доступные источники с открытых трекеров: 
Размер: 4,18 GB (занимает 0,95 DVDR, для записи нужно 1 болванка DVDR/RW)
 
 
Похожие темы
Форум Тема Автор Торрент Отв. Посл. сооб.
National Geographic Дикая природа Таиланда / Wild Thailand (2 серии из 2) / (Канит Прукпракарн, Петер Ринггаард) [2013 г., документальный, познавательный, фауна, флора, HDTV 1080i] Dub + VO (Ukr) + Original (Eng) ARI71
1 | 1

1 | 484

6

24.09.2016 21:34

Научно-популярные фильмы Дикая природа Нидерландов / De Nieuwe Wildernis (1-3 серии из 3) [2013 г., документальный, флора, фауна, SatRip] VO ARI71
1 | 0

0 | 769

5

28.02.2016 17:20

Научно-популярные фильмы Дикая природа и времена года / A Year in the Wild (1-5 серии из 5) [2014 г., документальный, природа, флора, фауна, SatRip] Dub ARI71
1 | 0

0 | 770

16

04.04.2016 08:03

Документальное кино [DVD / HDDVD / BD / Remux] Дикая природа России / Россия от края до края / Wild Russia (Тобиас Менле / Tobias Mennle, Иво Неренберг / Ivo Norenberg) [2009, Документальный, живая природа, BD-Remux 1080i] (1-6 серий из 6) uzi2009
3 | 0

0 | 911

3

09.05.2014 11:05

Документальное кино [DVD / HDDVD / BD / Remux] Дикая природа Скандинавии / Wild Scandinavia / Wildes Skandinavien (Уве Андерс, Оливер Гётцль, Ян Хафт, Тобиас Меннле / Uwe Anders, Oliver Goetzl, Jan Haft, Tobias Mennle) [2011 г., документальный,... uzi2009
4 | 2

0 | 1038

4

16.07.2014 07:05

Документальное кино [DVD / HDDVD / BD / Remux] Дикая природа Японии / Wildes Japan (Jens Westphalen, Thoralf Grospitz) [2010, Документальный, Blu-ray 1080i] AVO (Ю.Сербин), Original (Ger) uzi2009
3 | 1

0 | 1037

6

16.07.2014 07:22


Яндекс.Метрика powered by Sphinx


В Н И М А Н И Е
Сайт не распространяет и не хранит электронные версии произведений, а лишь бесплатно и без коммерческой выгоды (не требуя взамен платы,
SMS и т.д.) предоставляет доступ к создаваемому пользователями каталогу ссылок на торрент-файлы, которые содержат только списки хеш-сумм.
Убедительная просьба с жалобами обращаться напрямую к пользователю, разместившему торрент файл.

Вверх