Loading...
Error

Дорогая Элеонора / Dear Eleanor (Кевин Коннолли) [2016 г., драма, комедия, приключения, семейный, история, WEB-DLRip] MVO (iTunes)

Статистика раздачи
Размер:  1,37 GB   |    Зарегистрирован:  5 месяцев 1 день   |    Скачан:  6 раз

Полного источника не было: 2 месяца 22 дня

Сидов:  0  |  0 KB/s  ]   Личеров:  0  |  0 KB/s  ]

* - сиды/пиры с внешних источников

   
 
Автор Сообщение

makkol Пол:Муж

04-Июл-2016 22:43

Дорогая Элеонора / Dear Eleanor


Год выпуска: 2016
Жанр: драма, комедия, приключения, семейный, история
Производство: США [Nine Nights]
Режиссер: Кевин Коннолли
В ролях: Изабель Фурман, Лиана Либерато, Джессика Альба, Джош Лукас, Люк Уилсон, Клер ван дер Бом, Айони Скай, Патрик Шварценеггер, Джоэл Кортни, Пол Йоханссон
Сюжет фильма:
Две молодых девушки путешествуют по США в 1962 году, во время хаоса кубинского ракетного кризиса, в поисках Элеоноры Рузвельт.

  • Мировая премьера: 5 июля 2016


Качество видео: WEB-DLRip

Продолжительность: 01:29:31
Формат: AVI
Видео: XviD, 720x304 (2.35:1), 23.976 fps, 1793 kbps
Аудио: русский, профессиональный многоголосый закадровый (iTunes), AC3 5.1, 48 kHz, 384 kbps

Код:

Format : AVI
Format/Info : Audio Video Interleave
File size : 1.37 GiB
Duration : 1h 29mn
Overall bit rate : 2 187 Kbps
Movie name : Rustorrents.info
Writing application : VirtualDubMod 1.5.10.3 | www.virtualdub-fr.org || (build 2550/release)

Video
ID : 0
Format : MPEG-4 Visual
Format profile : Advanced Simple@L5
Format settings, BVOP : 2
Format settings, QPel : No
Format settings, GMC : No warppoints
Format settings, Matrix : Custom
Codec ID : XVID
Codec ID/Hint : XviD
Duration : 1h 29mn
Bit rate : 1 793 Kbps
Width : 720 pixels
Height : 304 pixels
Display aspect ratio : 2.35:1
Frame rate : 23.976 fps
Color space : YUV
Chroma subsampling : 4:2:0
Bit depth : 8 bits
Scan type : Progressive
Compression mode : Lossy
Bits/(Pixel*Frame) : 0.342
Stream size : 1.12 GiB (82%)
Writing library : XviD 1.2.1 (UTC 2008-12-04)

Audio
ID : 1
Format : AC-3
Format/Info : Audio Coding 3
Mode extension : CM (complete main)
Format settings, Endianness : Big
Codec ID : 2000
Duration : 1h 29mn
Bit rate mode : Constant
Bit rate : 384 Kbps
Channel(s) : 6 channels
Channel positions : Front: L C R, Side: L R, LFE
Sampling rate : 48.0 KHz
Bit depth : 16 bits
Compression mode : Lossy
Stream size : 246 MiB (18%)
Alignment : Split accross interleaves
Interleave, duration : 42 ms (1.00 video frame)
Interleave, preload duration : 500 ms
picpicpicpicpic
Для увеличения картинки щелкните мышкой по превью

Этот торрент недоступен для скачивания без регистрации, однако доступен по публичной magnet-ссылке (источники с публичных трекеров). Перед использованием ссылки прочтите, пожалуйста Пользовательское соглашение, а также как можно дольше оставайтесь на раздаче! Для того, чтобы скачать сам торрент-файл (который видит больше источников), а также для того, чтобы поблагодарить релизера, вам необходимо зарегистрироваться. Если регистрироваться лень - вы можете также попробовать скачать релиз по нашим партнерским ссылкам ниже.

[underverse.su].t67757.torrent
Трекер: Зарегистрирован   [ 04.07.2016 22:43 ]  

Статус: T временная (by makkol at 10.07.2016 22:48)
Поблагодарили: пока никто не поблагодарил...
Тип торрента: публичный - доступные источники с открытых трекеров: 
Размер: 1,37 GB (занимает 0,31 DVDR, для записи нужно 1 болванка DVDR/RW)
 
 
Похожие темы
Форум Тема Автор Торрент Отв. Посл. сооб.
T Зарубежное кино [HDDVDRip / BDRip / WEB-DL / HDTV 1080/720р] Дорогая Элеонора / Dear Eleanor (Кевин Коннолли) [2016 г., драма, комедия, приключения, семейный, история, WEB-DL 720p] MVO (iTunes) makkol
40 | 2

0 | 144

5

04.07.2016 22:49


Яндекс.Метрика powered by Sphinx


В Н И М А Н И Е
Сайт не распространяет и не хранит электронные версии произведений, а лишь бесплатно и без коммерческой выгоды (не требуя взамен платы,
SMS и т.д.) предоставляет доступ к создаваемому пользователями каталогу ссылок на торрент-файлы, которые содержат только списки хеш-сумм.
Убедительная просьба с жалобами обращаться напрямую к пользователю, разместившему торрент файл.

Вверх