Loading...
Error

Рыбалка на Горьковском водохранилище (Илья Петров) [2013 г., документальный, рыбалка, HDTVRip]

Статистика раздачи
Размер:  517 MB   |    Зарегистрирован:  5 месяцев 3 дня   |    Скачан:  5 раз

Полного источника не было: 4 месяца 16 дней

Сидов:  0  |  0 KB/s  ]   Личеров:  0  |  0 KB/s  ]

* - сиды/пиры с внешних источников

   
 
Автор Сообщение

ARI71 Пол:Муж

04-Июл-2016 16:41

Рыбалка на Горьковском водохранилище


Год выпуска: 2013
Жанр: документальный, рыбалка
Страна: Россия RTG-TV
Режиссер: Илья Петров
В ролях: Денис Головко
Сюжет фильма:
Величественная русская река Волга. Конца ей нет и края. Неудивительно, что в мифологии многих поволжских народов, Волга очень часто упоминается. Например мордовские народы считают, что весь мир держится на гигантской волжской рыбине. И этот миф не безоснователен, потому что в Волге очень много рыбы, и рыбалка здесь всегда удачная.
Качество видео: HDTVRip

Продолжительность: 00:36:04
Формат: AVI
Видео: XviD, 720x400, ~1797 kbps
Аудио: русский, (оригинал), AC3 2.0, ~192.00 kbps

Код:

Общее
Полное имя : D:\Rybalka.na.Gorkovskom.vodohranilishche.2013.XviD.HDTVRip.ExKinoRay.avi
Формат : AVI
Формат/Информация : Audio Video Interleave
Размер файла : 517 Мбайт
Продолжительность : 36 м.
Общий поток : 1999 Кбит/сек
Программа кодирования : VirtualDubMod 1.5.10.3 | www.virtualdub-fr.org || (build 2550/release)
Библиотека кодирования : VirtualDub build 35491/release

Видео
Идентификатор : 0
Формат : MPEG-4 Visual
Профиль формата : Advanced Simple@L5
Параметр BVOP формата : 1
Параметр QPel формата : Нет
Параметр GMC формата : Без точки перехода
Параметр матрицы формата : Default (H.263)
Идентификатор кодека : XVID
Идентификатор кодека/Подсказка : XviD
Продолжительность : 36 м.
Битрейт : 1797 Кбит/сек
Ширина : 720 пикселей
Высота : 400 пикселей
Соотношение сторон : 16:9
Частота кадров : 25,000 кадров/сек
Цветовое пространство : YUV
Субдискретизация насыщенности : 4:2:0
Битовая глубина : 8 бит
Тип развёртки : Прогрессивная
Метод сжатия : С потерями
Бит/(Пиксели*Кадры) : 0.250
Размер потока : 465 Мбайт (90%)
Библиотека кодирования : XviD 1.2.1 (UTC 2008-12-04)

Аудио
Идентификатор : 1
Формат : AC-3
Формат/Информация : Audio Coding 3
Расширение режима : CM (complete main)
Параметр Endianness формата : Big
Идентификатор кодека : 2000
Продолжительность : 36 м.
Вид битрейта : Постоянный
Битрейт : 192 Кбит/сек
Каналы : 2 канала
Расположение каналов : Front: L R
Частота : 48,0 КГц
Частота кадров : 31,250 кадров/сек (1536 spf)
Метод сжатия : С потерями
Размер потока : 49,7 Мбайт (10%)
Выравнивание : Разделение по промежуткам
Продолжительность промежутка : 40 мс. (1,00 видеокадр)
Время предзагрузки промежутка : 500 мс.
picpicpicpicpic
Для увеличения картинки щелкните мышкой по превью

Этот торрент недоступен для скачивания без регистрации, однако доступен по публичной magnet-ссылке (источники с публичных трекеров). Перед использованием ссылки прочтите, пожалуйста Пользовательское соглашение, а также как можно дольше оставайтесь на раздаче! Для того, чтобы скачать сам торрент-файл (который видит больше источников), а также для того, чтобы поблагодарить релизера, вам необходимо зарегистрироваться. Если регистрироваться лень - вы можете также попробовать скачать релиз по нашим партнерским ссылкам ниже.

[underverse.su].t67746.torrent
Трекер: Зарегистрирован   [ 04.07.2016 16:41 ]  

Статус: проверено (by makkol at 04.07.2016 21:19)
Поблагодарили: пока никто не поблагодарил...
Тип торрента: публичный - доступные источники с открытых трекеров: 
Размер: 517 MB (занимает 0,12 DVDR, для записи нужно 1 болванка DVDR/RW)
 
 
Похожие темы
Форум Тема Автор Торрент Отв. Посл. сооб.
Охота и рыбалка Рыбалка на Руси №5 [2015 г., Рыболовство, PDF] RUS vvmalysh
1 | 0

0 | 370

7

19.07.2015 19:33

Охота и рыбалка Рыбалка на Руси №1 (январь) [2016 г., Рыболовство, журнал, PDF] RUS vvmalysh
6 | 0

0 | 429

9

03.12.2015 20:28

Охота и рыбалка Рыбалка на Руси №2 (февраль) [2016 г., Рыболовство, журнал, PDF] RUS vvmalysh
34 | 0

0 | 374

6

07.02.2016 03:55

Охота и рыбалка Рыбалка на Руси №3 (Март) [2016 г., Рыболовство, журнал, PDF] RUS vvmalysh
6 | 0

0 | 465

7

17.02.2016 18:28

Охота и рыбалка Рыбалка на Руси №4 (апрель) [2016 г., Рыболовство, журнал, PDF] RUS vvmalysh
1 | 0

0 | 627

8

21.03.2016 07:32

Охота и рыбалка Рыбалка на Руси №9 (август) [2016 г., Рыболовство, журнал, PDF] RUS vvmalysh
8 | 0

0 | 174

3

06.09.2016 19:30

Охота и рыбалка Рыбалка на Руси №5 (Май) [2016 г., Рыболовство, журнал, PDF] RUS vvmalysh
6 | 0

0 | 454

5

05.05.2016 07:20


Яндекс.Метрика powered by Sphinx


В Н И М А Н И Е
Сайт не распространяет и не хранит электронные версии произведений, а лишь бесплатно и без коммерческой выгоды (не требуя взамен платы,
SMS и т.д.) предоставляет доступ к создаваемому пользователями каталогу ссылок на торрент-файлы, которые содержат только списки хеш-сумм.
Убедительная просьба с жалобами обращаться напрямую к пользователю, разместившему торрент файл.

Вверх