Loading...
Error

Любовь не по размеру / Un homme a la hauteur (Лоран Тирар) [2016 г., комедия, WEB-DLRip] Dub (iTunes)

Статистика раздачи
Размер:  1,45 GB   |    Зарегистрирован:  5 месяцев 5 дней   |    Скачан:  53 раза

Полного источника не было: 3 дня

Сидов:  0  |  0 KB/s  ]   Личеров:  0  |  0 KB/s  ]

* - сиды/пиры с внешних источников

   
 
Автор Сообщение

makkol Пол:Муж

04-Июл-2016 11:17

Любовь не по размеру / Un homme à la hauteur
«Свидание с ВысокоКлассным мужчиной»


Год выпуска: 2016
Жанр: комедия
Производство: Франция [Canal+ [fr], Centre National de la Cinématographie (CNC), Ciné, Creative Andina, M6 Films, Saint Sébastien Froissart, Scope Pictures]
Режиссер: Лоран Тирар
В ролях: Жан Дюжарден, Виржини Эфира, Седрик Кан, Стефани Папаниан, Сезар Домбой, Эдмон Франчи, Мануэлль Гайар, Бруно Гомила, Камилль Дамур, Франсуа-Доминик Блен
Сюжет фильма:
Потерянный мобильник оборачивается для Дианы знакомством с поистине невероятным человеком по имени Александр. Он умен, неутомим и чертовски обаятелен. У него замечательное чувство юмора и, кажется, нет недостатков. Кроме одного… Его рост — чуть больше метра. Это небольшое препятствие оказывается источником огромных проблем и множества неудобных и смешных ситуаций для Дианы. Но настоящая любовь может победить всё, если, конечно, это очень большая любовь.

  • Мировая премьера: 25 апреля 2016
  • Российская премьера: 12 мая 2016


Качество видео: WEB-DLRip

Продолжительность: 01:34:00
Формат: AVI
Видео: XviD, 720x304 (2.35:1), 25.000 fps, 1816 kbps
Аудио: русский, дублированный (iTunes), AC3 5.1, 48 kHz, 384 kbps

Код:

Формат                                   : AVI
Формат/Информация                        : Audio Video Interleave
Размер файла                             : 1,45 Гбайт
Продолжительность                        : 1 ч. 34 м.
Общий поток                              : 2210 Кбит/сек
Программа кодирования                    : VirtualDubMod 1.5.10.3 | (build 2550/release)
Библиотека кодирования                   : VirtualDubMod build 2550/release

Видео
Идентификатор                            : 0
Формат                                   : MPEG-4 Visual
Профиль формата                          : Advanced Simple@L5
Параметр BVOP формата                    : 1
Параметр QPel формата                    : Нет
Параметр GMC формата                     : Без точки перехода
Параметр матрицы формата                 : Выборочная
Идентификатор кодека                     : XVID
Идентификатор кодека/Подсказка           : XviD
Продолжительность                        : 1 ч. 34 м.
Битрейт                                  : 1816 Кбит/сек
Ширина                                   : 720 пикселей
Высота                                   : 304 пикселя
Соотношение сторон                       : 2,35:1
Частота кадров                           : 25,000 кадров/сек
Цветовое пространство                    : YUV
Субдискретизация насыщенности            : 4:2:0
Битовая глубина                          : 8 бит
Тип развёртки                            : Прогрессивная
Метод сжатия                             : С потерями
Бит/(Пиксели*Кадры)                      : 0.332
Размер потока                            : 1,19 Гбайт (82%)
Библиотека кодирования                   : XviD 73

Аудио
Идентификатор                            : 1
Формат                                   : AC-3
Формат/Информация                        : Audio Coding 3
Расширение режима                        : CM (complete main)
Параметр Endianness формата              : Big
Идентификатор кодека                     : 2000
Продолжительность                        : 1 ч. 34 м.
Вид битрейта                             : Постоянный
Битрейт                                  : 384 Кбит/сек
Каналы                                   : 6 каналов
Расположение каналов                     : Front: L C R, Side: L R, LFE
Частота                                  : 48,0 КГц
Метод сжатия                             : С потерями
Размер потока                            : 258 Мбайт (17%)
Выравнивание                             : Разделение по промежуткам
Продолжительность промежутка             : 40  мс. (1,00 видеокадр)
Время предзагрузки промежутка            : 500  мс.
picpicpicpicpic
Для увеличения картинки щелкните мышкой по превью

Этот торрент недоступен для скачивания без регистрации, однако доступен по публичной magnet-ссылке (источники с публичных трекеров). Перед использованием ссылки прочтите, пожалуйста Пользовательское соглашение, а также как можно дольше оставайтесь на раздаче! Для того, чтобы скачать сам торрент-файл (который видит больше источников), а также для того, чтобы поблагодарить релизера, вам необходимо зарегистрироваться. Если регистрироваться лень - вы можете также попробовать скачать релиз по нашим партнерским ссылкам ниже.

[underverse.su].t67736.torrent
Трекер: Зарегистрирован   [ 04.07.2016 11:17 ]  

Статус: T временная (by makkol at 06.07.2016 14:50)
Поблагодарили: 2 человека
Тип торрента: публичный - доступные источники с открытых трекеров: 
Размер: 1,45 GB (занимает 1/3 DVDR, для записи нужно 1 болванка DVDR/RW)
 
 
Похожие темы
Форум Тема Автор Торрент Отв. Посл. сооб.
Зарубежное кино [DVDRip, Low-Res HDRip, и т.д.] Любовь не по размеру / Un homme a la hauteur (Лоран Тирар / Laurent Tirard) [2016 г., комедия, BDRip-AVC] Dub 90ytr90
94 | 2

0 | 380

1

05.12.2016 18:29

Зарубежное кино [DVDRip, Low-Res HDRip, и т.д.] Любовь не по размеру / Un homme a la hauteur (Лоран Тирар / Laurent Tirard) [2016 г., комедия, HDRip] Dub 90ytr90
90 | 1

0 | 253

5

03.12.2016 13:02

Зарубежное кино [DVDRip, Low-Res HDRip, и т.д.] Любовь не по размеру / Un homme a la hauteur (Лоран Тирар / Laurent Tirard) [2016 г., комедия, BDRip] Dub 90ytr90
193 | 12

0 | 240

9

03.12.2016 12:40

T Зарубежное кино [DVDRip, Low-Res HDRip, и т.д.] Любовь не по размеру / Un homme a la hauteur (Лоран Тирар / Laurent Tirard) [2016 г., комедия, BDRip 720p] Dub (iTunes) + Original (Fre) 90ytr90
90 | 4

0 | 345

9

07.09.2016 07:22

T Зарубежное кино [DVDRip, Low-Res HDRip, и т.д.] Любовь не по размеру / Un homme a la hauteur (Лоран Тирар / Laurent Tirard) [2016 г., комедия, HDRip] Dub (iTunes) 90ytr90
199 | 4

0 | 430

15

07.09.2016 07:27

xUSSR сериалы Любовь не делится на два / Серии 1-4 (4) (Кира Ангелина) [2013 г., Мелодрама, SatRip] Чертёнок
1 | 0

0 | 1157

14

11.02.2013 19:33

xUSSR сериалы Любовь не картошка [серии 01-08 (08)] (Владимир Краснопольский, Валерий Усков) [2013 г., мелодрама, комедия, HDTVRip] 90ytr90
1 | 0

0 | 1190

20

16.01.2014 17:56

Зарубежное кино [HDDVDRip / BDRip / WEB-DL / HDTV 1080/720р] Любовь не по размеру / Un homme a la hauteur (Лоран Тирар / Laurent Tirard) [2016 г., комедия, BDRip 1080p] Dub + Original (Fre) + Sub (Fre) 90ytr90
78 | 11

0 | 240

4

03.12.2016 14:15

Зарубежное кино [HDDVDRip / BDRip / WEB-DL / HDTV 1080/720р] Любовь не по размеру / Un homme a la hauteur (Лоран Тирар / Laurent Tirard) [2016 г., комедия, BDRip 720p] Dub + Original (Fre) + Sub (Fre) 90ytr90
38 | 1

0 | 218

4

03.12.2016 12:44

T Зарубежное кино [HDDVDRip / BDRip / WEB-DL / HDTV 1080/720р] Любовь не по размеру / Un homme a la hauteur (Лоран Тирар) [2016 г., комедия, WEB-DL 1080p] Dub (iTunes) makkol
252 | 7

0 | 404

27

04.07.2016 11:24


Яндекс.Метрика powered by Sphinx


В Н И М А Н И Е
Сайт не распространяет и не хранит электронные версии произведений, а лишь бесплатно и без коммерческой выгоды (не требуя взамен платы,
SMS и т.д.) предоставляет доступ к создаваемому пользователями каталогу ссылок на торрент-файлы, которые содержат только списки хеш-сумм.
Убедительная просьба с жалобами обращаться напрямую к пользователю, разместившему торрент файл.

Вверх