Loading...
Error

(Instrumental, Jazz) Игорь Кружалин (Гоша Арбатский) - Долгая ночь в июне (Суперсакс - 2) (1996) [FLAC (Image+.CUE), lossless]

Статистика раздачи
Размер:  453 MB   |    Зарегистрирован:  2 года 4 месяца   |    Скачан:  8 раз

Полного источника не было: 28 дней

Сидов:  0  |  0 KB/s  ]   Личеров:  0  |  0 KB/s  ]

* - сиды/пиры с внешних источников

   
 
Автор Сообщение

Direktor Пол:Муж

04-Июл-2016 08:05

Игорь Кружалин (Гоша Арбатский) - Долгая ночь в июне (Суперсакс - 2)

Жанр: Instrumental, Jazz
Год выпуска: 1996
Источник: CD
Производитель: Pride Records - Pr.CD 96009
Аудиокодек: FLAC
Тип рипа: Image+.CUE
Битрейт: lossless
Продолжительность: 00:46:02

Треклист:

01. Lady In Red [04:29.07]
02. Souvenir [03:31.18]
03. Besame [03:26.30]
04. Телефонный твист [02:36.35]
05. Ночной каприз [03:56.37]
06. Скажи, откуда ты пришла... [04:54.45]
07. Звездная капель [04:23.48]
08. Денди-бой [02:26.37]
09. Море, луна и любовь... [06:12.55]
10. Бетховен [03:12.20]
11. Фантазии в стиле блюз [04:32.48]
12. Fine... [02:19.45]

Код:

Exact Audio Copy V1.0 beta 3 from 29. August 2011

Отчёт EAC об извлечении, выполненном 19. декабря 2012, 19:56

Игорь Кружалин / Долгая ночь в июне (Суперсакс - 2)

Дисковод: TEAC    DV-W520GM   Adapter: 4  ID: 0

Режим чтения                 : Достоверность
Использование точного потока : Да
Отключение кэша аудио        : Да
Использование указателей C2  : Нет

Коррекция смещения при чтении                     : 6
Способность читать области Lead-in и Lead-out     : Нет
Заполнение пропущенных сэмплов тишиной            : Да
Удаление блоков с тишиной в начале и конце        : Нет
При вычислениях CRC использовались нулевые сэмплы : Да
Интерфейс                                         : Встроенный Win32-интерфейс для Win NT/2000

Выходной формат : Внутренние WAV-операции
Формат сэмплов  : 44.100 Гц; 16 бит; стерео

TOC извлечённого CD

     Трек |   Старт  | Длительность | Начальный сектор | Конечный сектор
    ---------------------------------------------------------------------
       1  |  0:00.10 |    4:29.07   |          10      |      20191
       2  |  4:29.17 |    3:31.18   |       20192      |      36034
       3  |  8:00.35 |    3:26.30   |       36035      |      51514
       4  | 11:26.65 |    2:36.35   |       51515      |      63249
       5  | 14:03.25 |    3:56.37   |       63250      |      80986
       6  | 17:59.62 |    4:54.45   |       80987      |     103081
       7  | 22:54.32 |    4:23.48   |      103082      |     122854
       8  | 27:18.05 |    2:26.37   |      122855      |     133841
       9  | 29:44.42 |    6:12.55   |      133842      |     161796
      10  | 35:57.22 |    3:12.20   |      161797      |     176216
      11  | 39:09.42 |    4:32.48   |      176217      |     196664
      12  | 43:42.15 |    2:19.45   |      196665      |     207134

Характеристики диапазона извлечения и сообщения об ошибках

Выбранный диапазон

     Имя файла S:\CHANSON (А-М)\Арбатский Гоша\1996 - Игорь Кружалин - Долгая ночь в июне (Суперсакс - 2)\Игорь Кружалин - Долгая ночь в июне (Суперсакс - 2).wav

     Пиковый уровень 89.1 %
     Скорость извлечения 8.0 X
     Качество диапазона 100.0 %
     CRC теста 5031D1B7
     CRC копии 5031D1B7
     Копирование... OK

Ошибок не произошло

AccurateRip: сводка

Трек  1  отсутствует в базе данных
Трек  2  отсутствует в базе данных
Трек  3  отсутствует в базе данных
Трек  4  отсутствует в базе данных
Трек  5  отсутствует в базе данных
Трек  6  отсутствует в базе данных
Трек  7  отсутствует в базе данных
Трек  8  отсутствует в базе данных
Трек  9  отсутствует в базе данных
Трек 10  отсутствует в базе данных
Трек 11  отсутствует в базе данных
Трек 12  отсутствует в базе данных

Ни одного трека нет в базе AccurateRip

Конец отчёта

==== Контрольная сумма отчёта 0E5BFDB6AB46AA47704EE62A4F001E6427DC7FB4E4F0AEEC2A3A09BBE1011BF5 ====

Код:

REM GENRE Instrumental
REM DATE 1996
REM DISCID A70AC90C
REM COMMENT "ExactAudioCopy v1.0b3"
PERFORMER "Игорь Кружалин"
TITLE "Долгая ночь в июне (Суперсакс - 2)"
FILE "Игорь Кружалин - Долгая ночь в июне (Суперсакс - 2).flac" WAVE
  TRACK 01 AUDIO
    TITLE "Lady In Red"
    PERFORMER "Игорь Кружалин"
    INDEX 00 00:00:00
    INDEX 01 00:00:10
  TRACK 02 AUDIO
    TITLE "Souvenir"
    PERFORMER "Игорь Кружалин"
    INDEX 01 04:29:17
  TRACK 03 AUDIO
    TITLE "Besame"
    PERFORMER "Игорь Кружалин"
    INDEX 01 08:00:35
  TRACK 04 AUDIO
    TITLE "Телефонный твист"
    PERFORMER "Игорь Кружалин"
    INDEX 01 11:26:65
  TRACK 05 AUDIO
    TITLE "Ночной каприз"
    PERFORMER "Игорь Кружалин"
    INDEX 01 14:03:25
  TRACK 06 AUDIO
    TITLE "Скажи, откуда ты пришла..."
    PERFORMER "Игорь Кружалин"
    INDEX 01 17:59:62
  TRACK 07 AUDIO
    TITLE "Звездная капель"
    PERFORMER "Игорь Кружалин"
    INDEX 01 22:54:32
  TRACK 08 AUDIO
    TITLE "Денди-бой"
    PERFORMER "Игорь Кружалин"
    INDEX 01 27:18:05
  TRACK 09 AUDIO
    TITLE "Море, луна и любовь..."
    PERFORMER "Игорь Кружалин"
    INDEX 01 29:44:42
  TRACK 10 AUDIO
    TITLE "Бетховен"
    PERFORMER "Игорь Кружалин"
    INDEX 01 35:57:22
  TRACK 11 AUDIO
    TITLE "Фантазии в стиле блюз"
    PERFORMER "Игорь Кружалин"
    INDEX 01 39:09:42
  TRACK 12 AUDIO
    TITLE "Fine..."
    PERFORMER "Игорь Кружалин"
    INDEX 01 43:42:15
pic
Для увеличения картинки щелкните мышкой по превью

Этот торрент недоступен для скачивания без регистрации, однако доступен по публичной magnet-ссылке (источники с публичных трекеров). Перед использованием ссылки прочтите, пожалуйста Пользовательское соглашение, а также как можно дольше оставайтесь на раздаче! Для того, чтобы скачать сам торрент-файл (который видит больше источников), а также для того, чтобы поблагодарить релизера, вам необходимо зарегистрироваться. Если регистрироваться лень - вы можете также попробовать скачать релиз по нашим партнерским ссылкам ниже. Кроме того, зарегистрированным пользователям не показывается всплывающая реклама при скачивании.

[underverse.su].t67732.torrent
Трекер: Зарегистрирован   [ 04.07.2016 08:05 ]  

Статус: проверено (by Бишеп at 04.07.2016 09:02)
Поблагодарили: 1 человек
Тип торрента: публичный - доступные источники с открытых трекеров: 
Размер: 453 MB (занимает 0,1 DVDR, для записи нужно 1 болванка DVDR/RW)
 
 
Похожие темы
Форум Тема Автор Торрент Отв. Посл. сооб.
Зарубежный Hard, Progressive, Soft, Melodic, AOR, Folk, Classic Rock (Instrumental Rock) Joe Satriani - Дискография 1986-2010 (22 альбома) [MP3, 320 kbps] Паукан
0 | 1

0 | 2596

16

08.12.2012 19:08

Зарубежный Hard, Progressive, Soft, Melodic, AOR, Folk, Classic Rock (Instrumental Rock) ArneL - Symphonies For The Love That Heals Me (2017) [MP3, 320 kbps CBR] Darkferse
1 | 0

0 | 805

3

14.04.2017 19:25

Зарубежный Hard, Progressive, Soft, Melodic, AOR, Folk, Classic Rock (Instrumental Metal, Guitar Virtuoso) Stephane Pilette - Unleashing the Beast (2017) [MP3, 320 kbps CBR] Darkferse
1 | 1

0 | 603

2

10.06.2017 08:35

Зарубежный Hard, Progressive, Soft, Melodic, AOR, Folk, Classic Rock (Instrumental Metal, Guitar Virtuoso) Fabrizio Leo - Coming Home (2017) [MP3, 320 kbps CBR] Darkferse
1 | 1

0 | 757

1

04.09.2017 17:43

Зарубежный Hard, Progressive, Soft, Melodic, AOR, Folk, Classic Rock (Instrumental Rock) Northern Landmarks - Expose (2017) [MP3, 320 kbps CBR] Darkferse
2 | 0

0 | 580

3

04.09.2017 17:50

Зарубежный Hard, Progressive, Soft, Melodic, AOR, Folk, Classic Rock (Instrumental Progressive Rock) Colin Peters - Eclipse (2017) [MP3, 320 kbps CBR] Darkferse
1 | 0

0 | 387

2

17.12.2017 20:35

Зарубежный Hard, Progressive, Soft, Melodic, AOR, Folk, Classic Rock (Instrumental Guitar Rock) Rob Metz - Rise (2017) [MP3, 320 kbps CBR] Darkferse
1 | 0

0 | 502

3

04.01.2018 00:47

Отечественный Heavy, Thrash, Extreme (Instrumental Metal, Djent, Experimental) Ilya Dorofeev (Knoult) - Пробуждение (2012) [MP3, 320 kbps] Jimmy
1 | 0

0 | 1873

8

30.10.2012 17:41

Trip Hop, Abstract Hip Hop (Instrumental Hip-Hop, Nu Jazz, Trip-Hop) AndyFellaz - BeatBop Street (2017) [MP3, 320 kbps CBR] Darkferse
3 | 0

0 | 866

5

12.04.2017 20:36

Trip Hop, Abstract Hip Hop (Instrumental Hip Hop, Abstract) Trouble - Beam (2017) [MP3, 320 kbps CBR] Darkferse
1 | 0

0 | 722

2

17.05.2017 18:17


Яндекс.Метрика powered by Sphinx


В Н И М А Н И Е
Сайт не распространяет и не хранит электронные версии произведений, а лишь бесплатно и без коммерческой выгоды (не требуя взамен платы,
SMS и т.д.) предоставляет доступ к создаваемому пользователями каталогу ссылок на торрент-файлы, которые содержат только списки хеш-сумм.
Убедительная просьба с жалобами обращаться напрямую к пользователю, разместившему торрент файл.

Вверх