Loading...
Error

Инна Ульянова... Инезилья (Ольга Маркичева) [2005 г., документальный, кинематограф, биография, театр, IPTVRip]

Статистика раздачи
Размер:  619 MB   |    Зарегистрирован:  5 месяцев 6 дней   |    Скачан:  0 раз

Полного источника не было: 5 месяцев 3 дня

Сидов:  0  |  0 KB/s  ]   Личеров:  0  |  0 KB/s  ]

* - сиды/пиры с внешних источников

   
 
Автор Сообщение

ARI71 Пол:Муж

03-Июл-2016 08:40

Инна Ульянова... Инезилья


Год выпуска: 2005
Жанр: документальный, кинематограф, биография, театр
Страна: Россия тк "Альма Матер"
Режиссер: Ольга Маркичева
В ролях: Инна Ульянова
Сюжет фильма:
Знаменитой Инну Ульянову - "Инезилью", как называли ее друзья, сделало кино, в котором она не сыграла ни одной главной роли. Но каждую свою роль, даже эпизоды, она умело превращала в маленькие шедевры. Дар праздничной иронии, умение вести умный и изящный диалог со зрительным залом - отличительные исполнительские качества актрисы Инны Ульяновой. Она умела сочетать в своем творчестве парадоксальные черты, поэтому играла в спектаклях Николая Акимова, Юрия Любимова, Анатолия Эфроса, Сергея Арцибашева, в фильмах Никиты Михалкова, Дмитрия Астрахана, Михаила Козакова, Абрама Роома и других режиссеров. Всенародную славу и признание принес актрисе фильм Михаила Козакова "Покровские ворота", где она блистательно сыграла роль Маргариты Хоботовой. В документальном фильме принимают участие: Александр Ширвиндт, Сергей Арцибашев, Вениамин Смехов, Олег Меньшиков, Вера Карпова, Алла Казанская, Нина Архипова, драматург Леонид Зорин, журналист Нина Алаверт.

И́нна Ива́новна Улья́нова (30 июня 1934 — 9 июня 2005) — советская и российская актриса театра и кино, исполнительница комических и характерных ролей, заслуженная артистка РСФСР (1989), лауреат Государственной премии России (2000).

Качество видео: IPTVRip

Продолжительность: 00:38:42
Формат: AVI
Видео: XviD, 704x544, ~2100 kbps
Аудио: русский, (оригинал), MP3 2.0, ~128.00 kbps

Код:

Общее
Полное имя : D:\Инна Ульянова.Инезилья.2005.IPTVRip.avi
Формат : AVI
Формат/Информация : Audio Video Interleave
Размер файла : 619 Мбайт
Продолжительность : 38 м.
Общий поток : 2238 Кбит/сек
Программа кодирования : VirtualDubMod 1.5.10.3 | www.virtualdub-fr.org || (build 2550/release)
Библиотека кодирования : VirtualDubMod build 2550/release

Видео
Идентификатор : 0
Формат : MPEG-4 Visual
Профиль формата : Advanced Simple@L5
Параметр BVOP формата : 2
Параметр QPel формата : Нет
Параметр GMC формата : Без точки перехода
Параметр матрицы формата : Default (MPEG)
Идентификатор кодека : XVID
Идентификатор кодека/Подсказка : XviD
Продолжительность : 38 м.
Битрейт : 2100 Кбит/сек
Ширина : 704 пикселя
Высота : 544 пикселя
Соотношение сторон : 1,294
Частота кадров : 25,000 кадров/сек
Цветовое пространство : YUV
Субдискретизация насыщенности : 4:2:0
Битовая глубина : 8 бит
Тип развёртки : Прогрессивная
Метод сжатия : С потерями
Бит/(Пиксели*Кадры) : 0.219
Размер потока : 581 Мбайт (94%)
Библиотека кодирования : XviD 73

Аудио
Идентификатор : 1
Формат : MPEG Audio
Версия формата : Version 1
Профиль формата : Layer 3
Режим : Joint stereo
Расширение режима : MS Stereo
Идентификатор кодека : 55
Идентификатор кодека/Подсказка : MP3
Продолжительность : 38 м.
Вид битрейта : Постоянный
Битрейт : 128 Кбит/сек
Каналы : 2 канала
Частота : 48,0 КГц
Метод сжатия : С потерями
Размер потока : 35,4 Мбайт (6%)
Выравнивание : Соединение по промежуткам
Продолжительность промежутка : 40 мс. (1,00 видеокадр)
Время предзагрузки промежутка : 504 мс.
picpicpicpic
Для увеличения картинки щелкните мышкой по превью

Этот торрент недоступен для скачивания без регистрации, однако доступен по публичной magnet-ссылке (источники с публичных трекеров). Перед использованием ссылки прочтите, пожалуйста Пользовательское соглашение, а также как можно дольше оставайтесь на раздаче! Для того, чтобы скачать сам торрент-файл (который видит больше источников), а также для того, чтобы поблагодарить релизера, вам необходимо зарегистрироваться. Если регистрироваться лень - вы можете также попробовать скачать релиз по нашим партнерским ссылкам ниже.

[underverse.su].t67700.torrent
Трекер: Зарегистрирован   [ 03.07.2016 08:39 ]  

Статус: проверено (by makkol at 03.07.2016 09:37)
Поблагодарили: пока никто не поблагодарил...
Тип торрента: публичный - доступные источники с открытых трекеров: 
Размер: 619 MB (занимает 0,14 DVDR, для записи нужно 1 болванка DVDR/RW)
 
 

Яндекс.Метрика powered by Sphinx


В Н И М А Н И Е
Сайт не распространяет и не хранит электронные версии произведений, а лишь бесплатно и без коммерческой выгоды (не требуя взамен платы,
SMS и т.д.) предоставляет доступ к создаваемому пользователями каталогу ссылок на торрент-файлы, которые содержат только списки хеш-сумм.
Убедительная просьба с жалобами обращаться напрямую к пользователю, разместившему торрент файл.

Вверх