Loading...
Error

Инженерия невозможного / Impossible Engineering (6 серий из 6) [2015 г., документальный, строительство, история, HDTVRip] VO

Статистика раздачи
Размер:  3,17 GB   |    Зарегистрирован:  4 месяца 30 дней   |    Скачан:  7 раз

Полного источника не было: 1 день 8 часов

Сидов:  0  |  0 KB/s  ]   Личеров:  0  |  0 KB/s  ]

* - сиды/пиры с внешних источников

   
 
Автор Сообщение

ARI71 Пол:Муж

03-Июл-2016 07:01

Инженерия невозможного / Impossible Engineering (6 серий из 6)


Год выпуска: 2015
Жанр: документальный, строительство, история
Страна: США Discovery
В ролях: Майк Браттон, Джен Мэзенгарб, Рис Морган
Сюжет фильма:
За каждым чудом техники – будь то гигантский пассажирский авиалайнер или новейшая модель смартфона – стоит не одно поколение изобретателей. Одни гениальные идеи дополняются другими, с развитием науки мы получаем новые возможности и новые устройства, которые делают нашу жизнь проще и удобнее. Но что было в самом начале? Что стало импульсом, подарившим миру то или иное знаковое изобретение? Программа «Инженерия невозможного» отслеживает историю техники, путешествуя во времени. Вы познакомитесь с величайшими изобретателями прошлого и встретитесь с современными инженерами, которые продолжают их дело. Вы побываете в лабораториях и на испытательных полигонах, в крохотных мастерских и на огромных заводах. И, конечно, вы узнаете, как сила мысли в сочетании с удачным стечением обстоятельств или даже с обычной случайностью продолжает делать мир совершеннее.


Качество видео: HDTVRip

Продолжительность: 6 х ~ 00:44:00
Формат: AVI
Видео: XviD, 720x400, ~1526 kbps
Аудио: русский, одноголосый (профессиональный), AC3 2.0, ~192.00 kbps
(тех. данные всех серий идентичны)
01. Авианосец
02. Мост Рион-Андирион
03. Шанхайская башня
04. Аэропорт Кансай.
05. Шанхайский поезд-магнитоплан.
06. Самолет Airbus A380.

Код:

Общее
Полное имя : D:\Инженерия невозможного 2015.HDTVRip.GeneralFilm\01. Инженерия невозможного. Авианосец.avi
Формат : AVI
Формат/Информация : Audio Video Interleave
Размер файла : 544 Мбайт
Продолжительность : 44 м.
Общий поток : 1730 Кбит/сек
Программа кодирования : VirtualDubMod 1.5.10.3 | www.virtualdub-fr.org || (build 2550/release)
Библиотека кодирования : VirtualDubMod build 2550/release

Видео
Идентификатор : 0
Формат : MPEG-4 Visual
Профиль формата : Advanced Simple@L5
Параметр BVOP формата : 1
Параметр QPel формата : Нет
Параметр GMC формата : Без точки перехода
Параметр матрицы формата : Default (H.263)
Идентификатор кодека : XVID
Идентификатор кодека/Подсказка : XviD
Продолжительность : 44 м.
Битрейт : 1526 Кбит/сек
Ширина : 720 пикселей
Высота : 400 пикселей
Соотношение сторон : 16:9
Частота кадров : 30,000 кадров/сек
Цветовое пространство : YUV
Субдискретизация насыщенности : 4:2:0
Битовая глубина : 8 бит
Тип развёртки : Прогрессивная
Метод сжатия : С потерями
Бит/(Пиксели*Кадры) : 0.177
Размер потока : 480 Мбайт (88%)
Библиотека кодирования : XviD 1.2.1 (UTC 2008-12-04)

Аудио
Идентификатор : 1
Формат : AC-3
Формат/Информация : Audio Coding 3
Расширение режима : CM (complete main)
Параметр Endianness формата : Big
Идентификатор кодека : 2000
Продолжительность : 43 м.
Вид битрейта : Постоянный
Битрейт : 192 Кбит/сек
Каналы : 2 канала
Расположение каналов : Front: L R
Частота : 48,0 КГц
Частота кадров : 31,250 кадров/сек (1536 spf)
Метод сжатия : С потерями
Размер потока : 60,4 Мбайт (11%)
Выравнивание : Разделение по промежуткам
Продолжительность промежутка : 33 мс. (1,00 видеокадр)
Время предзагрузки промежутка : 500 мс.
picpicpicpicpic
Для увеличения картинки щелкните мышкой по превью

Этот торрент недоступен для скачивания без регистрации, однако доступен по публичной magnet-ссылке (источники с публичных трекеров). Перед использованием ссылки прочтите, пожалуйста Пользовательское соглашение, а также как можно дольше оставайтесь на раздаче! Для того, чтобы скачать сам торрент-файл (который видит больше источников), а также для того, чтобы поблагодарить релизера, вам необходимо зарегистрироваться. Если регистрироваться лень - вы можете также попробовать скачать релиз по нашим партнерским ссылкам ниже.

[underverse.su].t67694.torrent
Трекер: Зарегистрирован   [ 03.07.2016 07:03 ]  

Статус: проверено (by makkol at 03.07.2016 09:33)
Поблагодарили: пока никто не поблагодарил...
Тип торрента: публичный - доступные источники с открытых трекеров: 
Размер: 3,17 GB (занимает 0,72 DVDR, для записи нужно 1 болванка DVDR/RW)
 
 

Яндекс.Метрика powered by Sphinx


В Н И М А Н И Е
Сайт не распространяет и не хранит электронные версии произведений, а лишь бесплатно и без коммерческой выгоды (не требуя взамен платы,
SMS и т.д.) предоставляет доступ к создаваемому пользователями каталогу ссылок на торрент-файлы, которые содержат только списки хеш-сумм.
Убедительная просьба с жалобами обращаться напрямую к пользователю, разместившему торрент файл.

Вверх