Loading...
Error

Перерыв на бездумье / Time out of mind (Орен Моверман) [2014 г., драма, HDRip] MVO (iTunes)

Статистика раздачи
Размер:  1,46 GB   |    Зарегистрирован:  5 месяцев 4 дня   |    Скачан:  6 раз

Полного источника не было: 4 месяца 22 дня

Сидов:  0  |  0 KB/s  ]   Личеров:  0  |  0 KB/s  ]

* - сиды/пиры с внешних источников

   
 
Автор Сообщение

makkol Пол:Муж

02-Июл-2016 21:44

Перерыв на бездумье / Time out of mind


Год выпуска: 2014
Жанр: драма
Производство: США [Blackbird, Cold Iron Pictures, Lightstream Pictures]
Режиссер: Орен Моверман
В ролях: Ричард Гир, Джена Мэлоун, Стив Бушеми, Кира Седжвик, Майкл Кеннет Уильямс, Даниэль Брукс, Брайан Д’Арси Джеймс, Колман Доминго, Эбигейл Сэвадж, Майкл Бушеми
Сюжет фильма:
Фильм режиссера Орена Мовермана «Перерыв на бездумье» – это острая реалистичная драма, рассказывающая о проблемах современного общества. В главной роли Ричард Гир, 65-летний актер, сменивший амплуа и сыгравший нью-йоркского бездомного. Джордж находит убежище в больнице Белльвью, манхэттенском приёмном центре для бездомных, где его дружба с таким же обитателем помогает ему в попытках восстановить свои отношения с раздельно проживающей дочерью. История человека, потерявшего всё и совершающего длинный путь к себе, к своим близким в поисках смысла жизни.

  • Мировая премьера: 7 сентября 2014


Качество видео: HDRip

Продолжительность: 02:01:20
Формат: AVI
Видео: XviD, 720x304 (2.35:1), 23.976 fps, 1331 kbps
Аудио: русский, профессиональный многоголосый закадровый (iTunes), AC3 5.1, 48 kHz, 384 kbps

Код:

Формат                                   : AVI
Формат/Информация                        : Audio Video Interleave
Размер файла                             : 1,46 Гбайт
Продолжительность                        : 2 ч. 1 м.
Общий поток                              : 1724 Кбит/сек
Программа кодирования                    : VirtualDubMod 1.5.10.2 (build 2540/release)
Библиотека кодирования                   : VirtualDubMod build 2540/release

Видео
Идентификатор                            : 0
Формат                                   : MPEG-4 Visual
Профиль формата                          : Advanced Simple@L5
Параметр BVOP формата                    : 2
Параметр QPel формата                    : Нет
Параметр GMC формата                     : Без точки перехода
Параметр матрицы формата                 : Default (MPEG)
Идентификатор кодека                     : XVID
Идентификатор кодека/Подсказка           : XviD
Продолжительность                        : 2 ч. 1 м.
Битрейт                                  : 1331 Кбит/сек
Ширина                                   : 720 пикселей
Высота                                   : 304 пикселя
Соотношение сторон                       : 2,35:1
Частота кадров                           : 23,976 (23976/1000) кадра/сек
Цветовое пространство                    : YUV
Субдискретизация насыщенности            : 4:2:0
Битовая глубина                          : 8 бит
Тип развёртки                            : Прогрессивная
Метод сжатия                             : С потерями
Бит/(Пиксели*Кадры)                      : 0.254
Размер потока                            : 1,13 Гбайт (77%)
Библиотека кодирования                   : XviD 1.2.1 (UTC 2008-12-04)

Аудио
Идентификатор                            : 1
Формат                                   : AC-3
Формат/Информация                        : Audio Coding 3
Расширение режима                        : CM (complete main)
Параметр Endianness формата              : Big
Идентификатор кодека                     : 2000
Продолжительность                        : 2 ч. 1 м.
Вид битрейта                             : Постоянный
Битрейт                                  : 384 Кбит/сек
Каналы                                   : 6 каналов
Расположение каналов                     : Front: L C R, Side: L R, LFE
Частота                                  : 48,0 КГц
Частота кадров                           : 31,250 кадров/сек (1536 spf)
Метод сжатия                             : С потерями
Размер потока                            : 333 Мбайт (22%)
Выравнивание                             : Разделение по промежуткам
Продолжительность промежутка             : 42  мс. (1,00 видеокадр)
Время предзагрузки промежутка            : 500  мс.
picpicpicpicpic
Для увеличения картинки щелкните мышкой по превью

Этот торрент недоступен для скачивания без регистрации, однако доступен по публичной magnet-ссылке (источники с публичных трекеров). Перед использованием ссылки прочтите, пожалуйста Пользовательское соглашение, а также как можно дольше оставайтесь на раздаче! Для того, чтобы скачать сам торрент-файл (который видит больше источников), а также для того, чтобы поблагодарить релизера, вам необходимо зарегистрироваться. Если регистрироваться лень - вы можете также попробовать скачать релиз по нашим партнерским ссылкам ниже.

[underverse.su].t67689.torrent
Трекер: Зарегистрирован   [ 02.07.2016 21:44 ]  

Статус: T временная (by makkol at 03.07.2016 23:33)
Поблагодарили: пока никто не поблагодарил...
Тип торрента: публичный - доступные источники с открытых трекеров: 
Размер: 1,46 GB (занимает 0,33 DVDR, для записи нужно 1 болванка DVDR/RW)
 
 
Похожие темы
Форум Тема Автор Торрент Отв. Посл. сооб.
Зарубежное кино [DVDRip, Low-Res HDRip, и т.д.] Перерыв на бездумье / Time out of mind (Орен Моверман) [2014 г., драма, HDRip] DVO makkol
1 | 0

0 | 365

27

20.11.2015 22:18

Зарубежное кино [HDDVDRip / BDRip / WEB-DL / HDTV 1080/720р] Перерыв на бездумье / Time out of mind (Орен Моверман) [2014 г., драма, BDRip 1080p] DVO + Original makkol
0 | 0

0 | 404

12

20.11.2015 22:24

T Зарубежное кино [HDDVDRip / BDRip / WEB-DL / HDTV 1080/720р] Перерыв на бездумье / Time out of mind (Орен Моверман) [2014 г., драма, BDRip 1080p] MVO (iTunes) + Original makkol
55 | 2

0 | 420

5

02.07.2016 21:55


Яндекс.Метрика powered by Sphinx


В Н И М А Н И Е
Сайт не распространяет и не хранит электронные версии произведений, а лишь бесплатно и без коммерческой выгоды (не требуя взамен платы,
SMS и т.д.) предоставляет доступ к создаваемому пользователями каталогу ссылок на торрент-файлы, которые содержат только списки хеш-сумм.
Убедительная просьба с жалобами обращаться напрямую к пользователю, разместившему торрент файл.

Вверх