Loading...
Error

Выдуманная история / Совершенно невозможная история / Eine vollkommen erlogene Geschichte (Гюнтер Фридрих) [1977 г., семейный, DVDRip-AVC] AVO + Original

Статистика раздачи
Размер:  865 MB   |    Зарегистрирован:  5 месяцев 8 дней   |    Скачан:  0 раз
Сидов:  1  |  0 KB/s  ]   Личеров:  0  |  0 KB/s  ]

* - сиды/пиры с внешних источников

   
 
Автор Сообщение

makkol Пол:Муж

02-Июл-2016 10:17

Выдуманная история / Совершенно невозможная история / Eine vollkommen erlogene Geschichte


Год выпуска: 1977
Жанр: семейный
Производство: ГДР [Deutscher Fernsehfunk (DFF)]
Режиссер: Гюнтер Фридрих
В ролях: Сусанна Юневитц, Олаф Эрнст, Бриджитт Питерс, Эккехард Хан, Лизелотт Баумгартен, Хартмут Шрейер
Сюжет фильма:
Каролин и Тобиас очень хотят чтобы их ложь оказалась правдой, особенно Тобиас, который прячет свой табель успеваемости в угольном подвале. И вот однажды мечты маленьких обманщиков сбываются и чтобы они не сказали — правда. У Каролин есть сумка, в которой 500 немецких марок, Тобиас может переплыть целое озеро под водой. Дети так запутываются в своей лжи, что не знают как остановиться и когда все это закончится…

  • Мировая премьера: 31 декабря 1977


Качество видео: DVDRip-AVC

Продолжительность: 01:09:34
Формат: MKV
Видео: MPEG-4 AVC, 720x544 (4:3), 25.000 fps, 1352 kbps
Аудио #1: русский, авторский одноголосый закадровый (Юрий Муравский), MP3 2.0, 48 kHz, 192 kbps
Аудио #2: немецкий, оригинал, AC3 2.0, 48 kHz, 160 kbps

Код:

Формат                                   : Matroska
Версия формата                           : Version 2
Размер файла                             : 865 Мбайт
Продолжительность                        : 1 ч. 9 м.
Общий поток                              : 1739 Кбит/сек
Название фильма                          : Eine vollkommen erlogene Geschichte
Дата кодирования                         : UTC 2014-05-30 02:23:59
Программа кодирования                    : mkvmerge v4.1.1 ('Bouncin' Back') сборка от Jul  3 2010 22:54:08
Библиотека кодирования                   : libebml v1.0.0 + libmatroska v1.0.0

Видео
Идентификатор                            : 1
Формат                                   : AVC
Формат/Информация                        : Advanced Video Codec
Профиль формата                          : High@L3.1
Параметр CABAC формата                   : Да
Параметр ReFrames формата                : 5 кадров
Идентификатор кодека                     : V_MPEG4/ISO/AVC
Продолжительность                        : 1 ч. 9 м.
Битрейт                                  : 1352 Кбит/сек
Ширина                                   : 720 пикселей
Высота                                   : 544 пикселя
Соотношение сторон                       : 4:3
Режим частоты кадров                     : Постоянный
Частота кадров                           : 25,000 кадров/сек
Цветовое пространство                    : YUV
Субдискретизация насыщенности            : 4:2:0
Битовая глубина                          : 8 бит
Тип развёртки                            : Прогрессивная
Бит/(Пиксели*Кадры)                      : 0.138
Размер потока                            : 673 Мбайт (78%)
Библиотека кодирования                   : x264 core 130 r2273 b3065e6
Настройки программы                      : cabac=1 / ref=5 / deblock=1:0:0 / analyse=0x3:0x113 / me=hex / subme=7 / psy=1 / psy_rd=1.00:0.00 / mixed_ref=1 / me_range=16 / chroma_me=1 / trellis=1 / 8x8dct=1 / cqm=0 / deadzone=21,11 / fast_pskip=1 / chroma_qp_offset=-2 / threads=6 / lookahead_threads=1 / sliced_threads=0 / nr=0 / decimate=1 / interlaced=0 / bluray_compat=0 / constrained_intra=0 / bframes=3 / b_pyramid=2 / b_adapt=1 / b_bias=0 / direct=1 / weightb=1 / open_gop=0 / weightp=2 / keyint=250 / keyint_min=25 / scenecut=40 / intra_refresh=0 / rc_lookahead=40 / rc=crf / mbtree=1 / crf=22.0 / qcomp=0.60 / qpmin=0 / qpmax=69 / qpstep=4 / vbv_maxrate=17500 / vbv_bufsize=17500 / crf_max=0.0 / nal_hrd=none / ip_ratio=1.40 / aq=1:1.00
Язык                                     : German
Default                                  : Да
Forced                                   : Нет
Цветовой диапазон                        : Limited
Основные цвета                           : BT.601 PAL
Характеристики трансфера                 : BT.709
Коэффициенты матрицы                     : BT.601

Аудио #1
Идентификатор                            : 2
Формат                                   : MPEG Audio
Версия формата                           : Version 1
Профиль формата                          : Layer 3
Режим                                    : Joint stereo
Идентификатор кодека                     : A_MPEG/L3
Идентификатор кодека/Подсказка           : MP3
Продолжительность                        : 1 ч. 9 м.
Вид битрейта                             : Постоянный
Битрейт                                  : 192 Кбит/сек
Каналы                                   : 2 канала
Частота                                  : 48,0 КГц
Метод сжатия                             : С потерями
Задержка видео                           : 680 мс.
Размер потока                            : 95,5 Мбайт (11%)
Язык                                     : Russian
Default                                  : Да
Forced                                   : Нет

Аудио #2
Идентификатор                            : 3
Формат                                   : AC-3
Формат/Информация                        : Audio Coding 3
Расширение режима                        : CM (complete main)
Параметр Endianness формата              : Big
Идентификатор кодека                     : A_AC3
Продолжительность                        : 1 ч. 9 м.
Вид битрейта                             : Постоянный
Битрейт                                  : 160 Кбит/сек
Каналы                                   : 2 канала
Расположение каналов                     : Front: L R
Частота                                  : 48,0 КГц
Метод сжатия                             : С потерями
Размер потока                            : 79,6 Мбайт (9%)
Язык                                     : German
Default                                  : Нет
Forced                                   : Нет

Меню
00:00:00.000                             : en:Chapter 1
00:05:09.320                             : en:Chapter 2
00:15:42.000                             : en:Chapter 3
00:27:37.000                             : en:Chapter 4
00:35:22.840                             : en:Chapter 5
00:47:42.840                             : en:Chapter 6
00:59:58.120                             : en:Chapter 7
01:07:55.320                             : en:Chapter 8
picpicpicpicpic
Для увеличения картинки щелкните мышкой по превью

Этот торрент недоступен для скачивания без регистрации, однако доступен по публичной magnet-ссылке (источники с публичных трекеров). Перед использованием ссылки прочтите, пожалуйста Пользовательское соглашение, а также как можно дольше оставайтесь на раздаче! Для того, чтобы скачать сам торрент-файл (который видит больше источников), а также для того, чтобы поблагодарить релизера, вам необходимо зарегистрироваться. Если регистрироваться лень - вы можете также попробовать скачать релиз по нашим партнерским ссылкам ниже.

[underverse.su].t67684.torrent
Трекер: Зарегистрирован   [ 02.07.2016 10:17 ]  

Статус: проверено (by makkol at 03.07.2016 23:32)
Поблагодарили: пока никто не поблагодарил...
Тип торрента: публичный - доступные источники с открытых трекеров: 
Размер: 865 MB (занимает 0,19 DVDR, для записи нужно 1 болванка DVDR/RW)
 
 

Яндекс.Метрика powered by Sphinx


В Н И М А Н И Е
Сайт не распространяет и не хранит электронные версии произведений, а лишь бесплатно и без коммерческой выгоды (не требуя взамен платы,
SMS и т.д.) предоставляет доступ к создаваемому пользователями каталогу ссылок на торрент-файлы, которые содержат только списки хеш-сумм.
Убедительная просьба с жалобами обращаться напрямую к пользователю, разместившему торрент файл.

Вверх