Loading...
Error

Восставшие мертвецы: конец игры / Dead Rising: Endgame (Пэт Уильямс) [2016 г., ужасы, боевик, WEBRip] VO

Статистика раздачи
Размер:  1,38 GB   |    Зарегистрирован:  5 месяцев 2 дня   |    Скачан:  18 раз

Полного источника не было: 12 часов

Сидов:  0  |  0 KB/s  ]   Личеров:  0  |  0 KB/s  ]

* - сиды/пиры с внешних источников

   
 
Автор Сообщение

makkol Пол:Муж

01-Июл-2016 22:18

Восставшие мертвецы: конец игры
Dead Rising: Endgame


Год выпуска: 2016
Жанр: ужасы, боевик
Производство: США [Contradiction Films, DR2 Productions, Legendary Digital Media, Sony Pictures Entertainment (SPE)]
Режиссер: Пэт Уильямс
В ролях: Джесси Меткалф, Киган Коннор Трейси, Джессика Хэрмон, Деннис Хейсбёрт, Мари Авгеропулос, Тич Грант, Дакота Гуппи, Наоми Кайл, Стивен Лобо, Кертис Льюм
Сюжет фильма:
В центре сюжета — репортер Чейз Картер. Он вместе с друзьями находится в карантинной зоне, полной оживших мертвецов. Задача героев заключается в том, чтобы выжить и помешать правительству претворить в жизнь ужасный план: покончить с эпидемией ценой миллионов человеческих жизней.

  • Мировая премьера: 20 июня 2016


Качество видео: WEBRip

Продолжительность: 01:32:56
Формат: AVI
Видео: XviD, 720x304 (2.35:1), 23.976 fps, 1928 kbps
Аудио: русский, любительский одноголосый закадровый (Хихикающий доктор), MP3 2.0, 44.1 kHz, 192 kbps

Код:

Format : AVI
Format/Info : Audio Video Interleave
File size : 1.38 GiB
Duration : 1h 32mn
Overall bit rate : 2 129 Kbps
Writing application : VirtualDubMod 1.5.10.3 (build 2550/release)
Writing library : VirtualDubMod build 2550/release

Video
ID : 0
Format : MPEG-4 Visual
Format profile : Advanced Simple@L5
Format settings, BVOP : 2
Format settings, QPel : No
Format settings, GMC : No warppoints
Format settings, Matrix : Default (H.263)
Muxing mode : Packed bitstream
Codec ID : XVID
Codec ID/Hint : XviD
Duration : 1h 32mn
Bit rate : 1 928 Kbps
Width : 720 pixels
Height : 304 pixels
Display aspect ratio : 2.35:1
Frame rate : 23.976 fps
Color space : YUV
Chroma subsampling : 4:2:0
Bit depth : 8 bits
Scan type : Progressive
Compression mode : Lossy
Bits/(Pixel*Frame) : 0.367
Stream size : 1.25 GiB (91%)
Writing library : XviD 66

Audio
ID : 1
Format : MPEG Audio
Format version : Version 1
Format profile : Layer 3
Codec ID : 55
Codec ID/Hint : MP3
Duration : 1h 32mn
Bit rate mode : Constant
Bit rate : 192 Kbps
Channel(s) : 2 channels
Sampling rate : 44.1 KHz
Compression mode : Lossy
Stream size : 128 MiB (9%)
Alignment : Split accross interleaves
Interleave, duration : 42 ms (1.00 video frame)
Interleave, preload duration : 500 ms
picpicpicpicpic
Для увеличения картинки щелкните мышкой по превью

Этот торрент недоступен для скачивания без регистрации, однако доступен по публичной magnet-ссылке (источники с публичных трекеров). Перед использованием ссылки прочтите, пожалуйста Пользовательское соглашение, а также как можно дольше оставайтесь на раздаче! Для того, чтобы скачать сам торрент-файл (который видит больше источников), а также для того, чтобы поблагодарить релизера, вам необходимо зарегистрироваться. Если регистрироваться лень - вы можете также попробовать скачать релиз по нашим партнерским ссылкам ниже.

[underverse.su].t67676.torrent
Трекер: Зарегистрирован   [ 01.07.2016 22:18 ]  

Статус: проверено (by makkol at 03.07.2016 23:32)
Поблагодарили: пока никто не поблагодарил...
Тип торрента: публичный - доступные источники с открытых трекеров: 
Размер: 1,38 GB (занимает 0,32 DVDR, для записи нужно 1 болванка DVDR/RW)
 
 
Похожие темы
Форум Тема Автор Торрент Отв. Посл. сооб.
Зарубежное кино [DVDRip, Low-Res HDRip, и т.д.] Восставшие мертвецы: конец игры / Dead Rising: Endgame (Пэт Уильямс) [2016 г., ужасы, боевик, HDRip] MVO (Paradox & Omskbird records) makkol
105 | 3

0 | 64

1

03.11.2016 14:06

Зарубежное кино [DVDRip, Low-Res HDRip, и т.д.] Восставшие мертвецы / Dead Rising (Зэк Липовски) [2015 г., ужасы, WEB-DLRip] VO [Ворон] Паукан
15 | 2

0 | 612

20

22.04.2015 12:24

Зарубежное кино [DVDRip, Low-Res HDRip, и т.д.] Восставшие мертвецы / Dead Rising (Зэк Липовски) [2015 г., ужасы, боевик, триллер, WEB-DLRip] VO [Ворон] + Original Паукан
21 | 1

0 | 674

36

23.04.2015 12:58

Зарубежное кино [DVDRip, Low-Res HDRip, и т.д.] Восставшие мертвецы / Dead Rising: Watchtower (Зак Липовски) [2015 г., ужасы, HDRip] DVO makkol
12 | 0

0 | 465

38

26.07.2015 21:54

T Зарубежное кино [DVDRip, Low-Res HDRip, и т.д.] Восставшие мертвецы: конец игры / Dead Rising: Endgame (Пэт Уильямс / Pat Williams) [2016 г., ужасы, боевик, WEBRip] MVO (Parovoz Production) 90ytr90
44 | 0

0 | 468

9

18.07.2016 20:55

T Зарубежное кино [HDDVDRip / BDRip / WEB-DL / HDTV 1080/720р] Восставшие мертвецы: конец игры / Dead Rising: Endgame (Пэт Уильямс / Pat Williams) [2016 г., ужасы, боевик, BDRip 1080p] MVO (Paradox & Omskbird records) + Original (Eng) 90ytr90
43 | 4

0 | 205

2

04.11.2016 03:32

Зарубежное кино [HDDVDRip / BDRip / WEB-DL / HDTV 1080/720р] Восставшие мертвецы: конец игры / Dead Rising: Endgame (Пэт Уильямс / Pat Williams) [2016 г., ужасы, боевик, BDRip 720p] MVO (Paradox & Omskbird records) + Original (Eng) 90ytr90
17 | 0

0 | 65

3

04.11.2016 03:28

Зарубежное кино [HDDVDRip / BDRip / WEB-DL / HDTV 1080/720р] Восставшие мертвецы / Dead Rising: Watchtower (Зак Липовски) [2015 г., ужасы, BDRip 720p] DVO + Original makkol
9 | 1

0 | 537

28

26.07.2015 22:06


Яндекс.Метрика powered by Sphinx


В Н И М А Н И Е
Сайт не распространяет и не хранит электронные версии произведений, а лишь бесплатно и без коммерческой выгоды (не требуя взамен платы,
SMS и т.д.) предоставляет доступ к создаваемому пользователями каталогу ссылок на торрент-файлы, которые содержат только списки хеш-сумм.
Убедительная просьба с жалобами обращаться напрямую к пользователю, разместившему торрент файл.

Вверх