Loading...
Error

Посторонний / Intruder (Трэвис Заривны) [2016 г., ужасы, триллер, WEBRip] VO + Original

Статистика раздачи
Размер:  1,37 GB   |    Зарегистрирован:  5 месяцев 8 дней   |    Скачан:  7 раз

Полного источника не было: 16 дней

Сидов:  0  |  0 KB/s  ]   Личеров:  0  |  0 KB/s  ]

* - сиды/пиры с внешних источников

   
 
Автор Сообщение

makkol Пол:Муж

01-Июл-2016 14:44

Посторонний / Intruder


Год выпуска: 2016
Жанр: ужасы, триллер
Производство: США [Stormchaser Films]
Режиссер: Трэвис Заривны
В ролях: Стивен Бэкингэм, Тереза Дечер, Луиз Линтон, Сюзанна Марс, Мэри МаДональд-Льюис, Моби, Зэк Майерс, Джон Робинсон, Аарон Трэйнор
Сюжет фильма:
И вновь маньяки выходят на тропу войны.Теперь очередь дошла до беззащитных виолончелисток. Во время одного из самых сильных штормов в штате Орегон, молодая виолончелистка ищет уединение и безопасность в своей большой квартире, но вскоре понимает, что она дома не одна. Кто победит: страшный маньяк или любительница смычка?

  • Мировая премьера: 24 июня 2016


Качество видео: WEBRip

Продолжительность: 01:30:49
Формат: AVI
Видео: XviD, 720x304 (2.35:1), 23.976 fps, 1375 kbps
Аудио #1: русский, любительский одноголосый закадровый (Хихикающий доктор), AC3 2.0, 48 kHz, 384 kbps
Аудио #2: английский, оригинал, AC3 2.0, 48 kHz, 384 kbps

Код:

Format : AVI
Format/Info : Audio Video Interleave
File size : 1.37 GiB
Duration : 1h 30mn
Overall bit rate : 2 157 Kbps
Writing application : VirtualDubMod 1.5.10.3 | www.virtualdub-fr.org || (build 2550/release)
Writing library : VirtualDubMod build 2550/release

Video
ID : 0
Format : MPEG-4 Visual
Format profile : Advanced Simple@L5
Format settings, BVOP : 1
Format settings, QPel : No
Format settings, GMC : No warppoints
Format settings, Matrix : Custom
Codec ID : XVID
Codec ID/Hint : XviD
Duration : 1h 30mn
Bit rate : 1 375 Kbps
Width : 720 pixels
Height : 304 pixels
Display aspect ratio : 2.35:1
Frame rate : 23.976 fps
Color space : YUV
Chroma subsampling : 4:2:0
Bit depth : 8 bits
Scan type : Progressive
Compression mode : Lossy
Bits/(Pixel*Frame) : 0.262
Stream size : 893 MiB (64%)
Writing library : XviD 73

Audio #1
ID : 1
Format : AC-3
Format/Info : Audio Coding 3
Mode extension : CM (complete main)
Format settings, Endianness : Big
Codec ID : 2000
Duration : 1h 30mn
Bit rate mode : Constant
Bit rate : 384 Kbps
Channel(s) : 2 channels
Channel positions : Front: L R
Sampling rate : 48.0 KHz
Bit depth : 16 bits
Compression mode : Lossy
Stream size : 249 MiB (18%)
Alignment : Split accross interleaves
Interleave, duration : 42 ms (1.00 video frame)
Interleave, preload duration : 500 ms

Audio #2
ID : 2
Format : AC-3
Format/Info : Audio Coding 3
Mode extension : CM (complete main)
Format settings, Endianness : Big
Codec ID : 2000
Duration : 1h 30mn
Bit rate mode : Constant
Bit rate : 384 Kbps
Channel(s) : 2 channels
Channel positions : Front: L R
Sampling rate : 48.0 KHz
Bit depth : 16 bits
Compression mode : Lossy
Stream size : 249 MiB (18%)
Alignment : Split accross interleaves
Interleave, duration : 42 ms (1.00 video frame)
Interleave, preload duration : 500 ms
picpicpicpicpic
Для увеличения картинки щелкните мышкой по превью

Этот торрент недоступен для скачивания без регистрации, однако доступен по публичной magnet-ссылке (источники с публичных трекеров). Перед использованием ссылки прочтите, пожалуйста Пользовательское соглашение, а также как можно дольше оставайтесь на раздаче! Для того, чтобы скачать сам торрент-файл (который видит больше источников), а также для того, чтобы поблагодарить релизера, вам необходимо зарегистрироваться. Если регистрироваться лень - вы можете также попробовать скачать релиз по нашим партнерским ссылкам ниже.

[underverse.su].t67662.torrent
Трекер: Зарегистрирован   [ 01.07.2016 14:44 ]  

Статус: проверено (by makkol at 03.07.2016 23:12)
Поблагодарили: пока никто не поблагодарил...
Тип торрента: публичный - доступные источники с открытых трекеров: 
Размер: 1,37 GB (занимает 0,31 DVDR, для записи нужно 1 болванка DVDR/RW)
 
 
Похожие темы
Форум Тема Автор Торрент Отв. Посл. сооб.
Зарубежное кино [DVDRip, Low-Res HDRip, и т.д.] Посторонний / The Intruders (Адам Мэсси / Adam Massey) [2015 г., триллер, DVDRip] VO (PashaUp) 90ytr90
0 | 1

0 | 444

6

28.02.2015 10:34

Зарубежное кино [DVDRip, Low-Res HDRip, и т.д.] Посторонний / The Intruders (Адам Мэсси / Adam Massey) [2015 г., триллер, WEB-DLRip] VO (PashaUp) + Original (Eng) 90ytr90
29 | 0

0 | 455

7

28.02.2015 10:45

T Зарубежное кино [DVDRip, Low-Res HDRip, и т.д.] Посторонний / The Intruders (Адам Мэсси / Adam Massey) [2015 г., триллер, WEB-DLRip] MVO (iTunes) 90ytr90
2 | 0

0 | 492

12

02.05.2015 10:30

Зарубежное кино [HDDVDRip / BDRip / WEB-DL / HDTV 1080/720р] Посторонний / The Intruders (Адам Мэсси / Adam Massey) [2015 г., триллер, WEB-DL 720p] VO (PashaUp) + Original (Eng) 90ytr90
11 | 1

0 | 477

6

28.02.2015 10:50

T Зарубежное кино [HDDVDRip / BDRip / WEB-DL / HDTV 1080/720р] Посторонний / The Intruders (Адам Мэсси / Adam Massey) [2015 г., триллер, WEB-DL 720p] MVO (iTunes) + Original (Eng) 90ytr90
1 | 0

0 | 505

11

02.05.2015 10:34


Яндекс.Метрика powered by Sphinx


В Н И М А Н И Е
Сайт не распространяет и не хранит электронные версии произведений, а лишь бесплатно и без коммерческой выгоды (не требуя взамен платы,
SMS и т.д.) предоставляет доступ к создаваемому пользователями каталогу ссылок на торрент-файлы, которые содержат только списки хеш-сумм.
Убедительная просьба с жалобами обращаться напрямую к пользователю, разместившему торрент файл.

Вверх