Loading...
Error

Пятница (Евгений Шелякин) [2016 г., комедия, HDRip]

Статистика раздачи
Размер:  1,37 GB   |    Зарегистрирован:  5 месяцев 6 дней   |    Скачан:  25 раз

Полного источника не было: 14 часов

Сидов:  0  |  0 KB/s  ]   Личеров:  0  |  0 KB/s  ]

* - сиды/пиры с внешних источников

   
 
Автор Сообщение

makkol Пол:Муж

01-Июл-2016 14:09

Пятница
«Все ждем пятницу!»


Год выпуска: 2016
Жанр: комедия
Производство: Россия [RSS Production]
Режиссер: Евгений Шелякин
В ролях: Данила Козловский, Настасья Самбурская, Катерина Шпица, Павел Деревянко, Кирилл Плетнёв, Евгения Брик (Хиривская), Антон Шагин, Ян Цапник, Евгений Стычкин, Сергей Бурунов, Сергей Чирков, Аристарх Венес, Максим Емельянов, Никита Павленко, Михаил Полицеймако, Алексей Гришин, Антон Шурцев, Айгуль Мильштейн, Лилия Лаврова, Ирина Бутанаева, Елена Лотова, Александр Зельский, Наталья Бардо, Евгения Гирзекорн, Дарья Пугачева, Эммануил Виторган, Анжелика Каширина, Юлия Чиплиева
Сюжет фильма:
Что если азартный миллионер на одну ночь станет официантом, офисный лузер будет звездой самой яркой вечеринки, а двум «заклятым» друзьям придется искать кенгуру ночью в подмосковном лесу? У каждого своя пятница! Как она закончится для каждого, знает только утро субботы.

  • Мировая премьера: 23 марта 2016
  • Российская премьера: 26 февраля 2016


Качество видео: HDRip

Продолжительность: 01:26:54
Формат: AVI
Видео: XviD, 720x304 (2.35:1), 24.000 fps, 1644 kbps
Аудио: русский, оригинал (лицензия), AC3 5.1, 48 kHz, 448 kbps

Код:

Format : AVI
Format/Info : Audio Video Interleave
Overall bit rate : 2 103 Kbps
Writing application : VirtualDubMod 1.5.10.3 | (build 2550/release)
Writing library : VirtualDubMod build 2550/release

Video
ID : 0
Format : MPEG-4 Visual
Format profile : Advanced Simple@L5
Format settings, BVOP : 2
Format settings, QPel : No
Format settings, GMC : No warppoints
Format settings, Matrix : Default (MPEG)
Codec ID : XVID
Codec ID/Hint : XviD
Bit rate : 1 644 Kbps
Width : 720 pixels
Height : 304 pixels
Display aspect ratio : 2.35:1
Frame rate : 24.000 fps
Color space : YUV
Chroma subsampling : 4:2:0
Bit depth : 8 bits
Scan type : Progressive
Compression mode : Lossy
Bits/(Pixel*Frame) : 0.313
Stream size : 11.1 MiB (78%)
Writing library : XviD 1.2.1 (UTC 2008-12-04)

Audio
ID : 1
Format : AC-3
Format/Info : Audio Coding 3
Mode extension : CM (complete main)
Format settings, Endianness : Big
Codec ID : 2000
Bit rate mode : Constant
Bit rate : 448 Kbps
Channel(s) : 6 channels
Channel positions : Front: L C R, Side: L R, LFE
Sampling rate : 48.0 KHz
Compression mode : Lossy
Stream size : 3.03 MiB (21%)
Alignment : Split accross interleaves
Interleave, duration : 42 ms (1.01 video frame)
Interleave, preload duration : 500 ms
picpicpicpicpic
Для увеличения картинки щелкните мышкой по превью

Этот торрент недоступен для скачивания без регистрации, однако доступен по публичной magnet-ссылке (источники с публичных трекеров). Перед использованием ссылки прочтите, пожалуйста Пользовательское соглашение, а также как можно дольше оставайтесь на раздаче! Для того, чтобы скачать сам торрент-файл (который видит больше источников), а также для того, чтобы поблагодарить релизера, вам необходимо зарегистрироваться. Если регистрироваться лень - вы можете также попробовать скачать релиз по нашим партнерским ссылкам ниже.

[underverse.su].t67660.torrent
Трекер: Зарегистрирован   [ 01.07.2016 14:09 ]  

Статус: проверено (by makkol at 03.07.2016 23:08)
Поблагодарили: пока никто не поблагодарил...
Тип торрента: публичный - доступные источники с открытых трекеров: 
Размер: 1,37 GB (занимает 0,31 DVDR, для записи нужно 1 болванка DVDR/RW)
 
 
Похожие темы
Форум Тема Автор Торрент Отв. Посл. сооб.
Наше кино [DVDRip, Low-Res HDRip, и т.д.] Пятница (Евгений Шелякин) [2016 г., комедия, BDRip-AVC] 90ytr90
58 | 2

0 | 346

16

05.07.2016 18:02

Наше кино [DVDRip, Low-Res HDRip, и т.д.] Пятница (Евгений Шелякин) [2016 г., комедия, BDRip-AVC] 90ytr90
21 | 0

0 | 283

8

05.07.2016 17:56

Наше кино [HDDVDRip / BDRip / WEB-DL / HDTV 1080/720р] Пятница (Евгений Шелякин) [2016 г., комедия, BDRip 1080p] makkol
45 | 1

0 | 446

14

01.07.2016 14:23

Наше кино [HDDVDRip / BDRip / WEB-DL / HDTV 1080/720р] Пятница (Евгений Шелякин) [2016 г., комедия, BDRip 720p] 90ytr90
67 | 0

0 | 284

7

05.07.2016 17:07

Наше кино [HDDVDRip / BDRip / WEB-DL / HDTV 1080/720р] Пятница (Евгений Шелякин) [2016 г., комедия, BDRip 720p] 90ytr90
55 | 2

0 | 301

5

31.08.2016 11:52


Яндекс.Метрика powered by Sphinx


В Н И М А Н И Е
Сайт не распространяет и не хранит электронные версии произведений, а лишь бесплатно и без коммерческой выгоды (не требуя взамен платы,
SMS и т.д.) предоставляет доступ к создаваемому пользователями каталогу ссылок на торрент-файлы, которые содержат только списки хеш-сумм.
Убедительная просьба с жалобами обращаться напрямую к пользователю, разместившему торрент файл.

Вверх