Loading...
Error

Тайная жизнь мошкары / The Secret Life of Midges (Колин Мюррей) [2015 г., документальный, научно-познавательный, HDTVRip 720p] Dub

Статистика раздачи
Размер:  1,26 GB   |    Зарегистрирован:  5 месяцев 7 дней   |    Скачан:  5 раз

Полного источника не было: 7 дней

Сидов:  0  |  0 KB/s  ]   Личеров:  0  |  0 KB/s  ]

* - сиды/пиры с внешних источников

   
 
Автор Сообщение

ARI71 Пол:Муж

30-Июн-2016 09:48

Тайная жизнь мошкары / The Secret Life of Midges


Год выпуска: 2015
Жанр: документальный, научно-познавательный
Страна: Великобритания BBC Scotland Scince Production
Режиссер: Колин Мюррей
Сюжет фильма:
Шотландская мошка - маленькое существо с огромной силой. Это одно из немногих насекомых Британских островов, питающееся человеческой кровью. Доктор Джеймс Логан выяснит, почему некоторые из нас привлекают кровопийц больше, чем другие, и может ли в нас самих содержаться естественный репеллент.
Качество видео: HDTVRip 720p

Продолжительность: 00:49:54
Формат: MKV
Видео: AVC (x264), 1280x720, ~3500 kbps
Аудио: русский, (дублированный), AC3 2.0, ~128.00 kbps

Код:

Общее
Уникальный идентификатор : 233304766240898732297840271353853459568 (0xAF84DD116D3F8B93B83CED91AFE33C70)
Полное имя : D:\BBC_The Secret Life of Midges_720p.mkv
Формат : Matroska
Версия формата : Version 4 / Version 2
Размер файла : 1,26 Гбайт
Продолжительность : 49 м.
Режим общего битрейта : Переменный
Общий поток : 3629 Кбит/сек
Дата кодирования : UTC 2016-06-28 17:01:24
Программа кодирования : mkvmerge v6.9.1 ('Blue Panther') 64bit built on Apr 18 2014 18:23:38
Библиотека кодирования : libebml v1.3.0 + libmatroska v1.4.1

Видео
Идентификатор : 1
Формат : AVC
Формат/Информация : Advanced Video Codec
Профиль формата : High@L4.1
Параметр CABAC формата : Да
Параметр ReFrames формата : 3 кадра
Идентификатор кодека : V_MPEG4/ISO/AVC
Продолжительность : 49 м.
Вид битрейта : Переменный
Битрейт : 3500 Кбит/сек
Максимальный битрейт : 8000 Кбит/сек
Ширина : 1280 пикселей
Высота : 720 пикселей
Соотношение сторон : 16:9
Режим частоты кадров : Постоянный
Частота кадров : 25,000 кадров/сек
Стандарт вещания : NTSC
Цветовое пространство : YUV
Субдискретизация насыщенности : 4:2:0
Битовая глубина : 8 бит
Тип развёртки : Прогрессивная
Бит/(Пиксели*Кадры) : 0.152
Размер потока : 1,19 Гбайт (94%)
Библиотека кодирования : x264 core 114
Настройки программы : cabac=1 / ref=3 / deblock=1:0:0 / analyse=0x3:0x113 / me=hex / subme=7 / psy=1 / psy_rd=1.00:0.00 / mixed_ref=1 / me_range=16 / chroma_me=1 / trellis=1 / 8x8dct=1 / cqm=2 / deadzone=21,11 / fast_pskip=1 / chroma_qp_offset=-4 / threads=6 / sliced_threads=0 / slices=1 / nr=0 / decimate=1 / interlaced=0 / constrained_intra=0 / bframes=3 / b_pyramid=0 / b_adapt=1 / b_bias=0 / direct=1 / weightb=1 / open_gop=0 / weightp=2 / keyint=250 / keyint_min=25 / scenecut=40 / intra_refresh=0 / rc_lookahead=40 / rc=2pass / mbtree=1 / bitrate=3500 / ratetol=1.0 / qcomp=0.60 / qpmin=5 / qpmax=69 / qpstep=4 / cplxblur=20.0 / qblur=0.5 / vbv_maxrate=8000 / vbv_bufsize=7995 / nal_hrd=vbr / ip_ratio=1.40 / aq=1:1.00
Default : Да
Forced : Нет
Цветовой диапазон : Limited
Основные цвета : BT.709
Характеристики трансфера : BT.709
Коэффициенты матрицы : BT.709

Аудио
Идентификатор : 2
Формат : AC-3
Формат/Информация : Audio Coding 3
Расширение режима : CM (complete main)
Параметр Endianness формата : Big
Идентификатор кодека : A_AC3
Продолжительность : 49 м.
Вид битрейта : Постоянный
Битрейт : 128 Кбит/сек
Каналы : 2 канала
Расположение каналов : Front: L R
Частота : 48,0 КГц
Частота кадров : 31,250 кадров/сек (1536 spf)
Метод сжатия : С потерями
Размер потока : 45,7 Мбайт (4%)
Default : Да
Forced : Нет
picpicpicpicpic
Для увеличения картинки щелкните мышкой по превью

Этот торрент недоступен для скачивания без регистрации, однако доступен по публичной magnet-ссылке (источники с публичных трекеров). Перед использованием ссылки прочтите, пожалуйста Пользовательское соглашение, а также как можно дольше оставайтесь на раздаче! Для того, чтобы скачать сам торрент-файл (который видит больше источников), а также для того, чтобы поблагодарить релизера, вам необходимо зарегистрироваться. Если регистрироваться лень - вы можете также попробовать скачать релиз по нашим партнерским ссылкам ниже.

[underverse.su].t67639.torrent
Трекер: Зарегистрирован   [ 30.06.2016 09:48 ]  

Статус: проверено (by makkol at 30.06.2016 09:53)
Поблагодарили: 2 человека
Тип торрента: публичный - доступные источники с открытых трекеров: 
Размер: 1,26 GB (занимает 0,29 DVDR, для записи нужно 1 болванка DVDR/RW)
 
 
Похожие темы
Форум Тема Автор Торрент Отв. Посл. сооб.
T Зарубежные мультфильмы Тайная жизнь домашних животных / The Secret Life of Pets (Ярроу Чейни / Yarrow Cheney, Крис Рено / Chris Renaud) [2016 г., мультфильм, комедия, семейный, BDRip-AVC] Dub (iTunes) + Sub (Rus) 90ytr90
187 | 13

0 | 179

9

17.11.2016 08:21

T Зарубежные мультфильмы Тайная жизнь домашних животных / The Secret Life of Pets (Ярроу Чейни / Yarrow Cheney, Крис Рено / Chris Renaud) [2016 г., мультфильм, комедия, семейный, BDRip-AVC] Dub (iTunes) + Original (Eng) +... 90ytr90
362 | 20

0 | 173

5

17.11.2016 08:21

T Зарубежные мультфильмы Тайная жизнь домашних животных / The Secret Life of Pets (Ярроу Чейни / Yarrow Cheney, Крис Рено / Chris Renaud) [2016 г., мультфильм, комедия, семейный, BDRip] Dub (iTunes) + Sub (Rus) 90ytr90
10 | 3

0 | 171

0

16.11.2016 20:57

T Зарубежные мультфильмы Тайная жизнь домашних животных / The Secret Life of Pets (Ярроу Чейни / Yarrow Cheney, Крис Рено / Chris Renaud) [2016 г., мультфильм, комедия, семейный, BDRip] Dub (iTunes) + Sub (Rus) 90ytr90
293 | 24

0 | 193

2

16.11.2016 20:54

T Зарубежные мультфильмы Тайная жизнь домашних животных / The Secret Life of Pets (Ярроу Чейни, Крис Рено) [2016 г., мультфильм, комедия, семейный, HDRip] Dub (Line) makkol
1 | 0

0 | 78

9

05.11.2016 21:23

% Зарубежные мультфильмы Тайная жизнь домашних животных / The Secret Life of Pets (Ярроу Чейни / Yarrow Cheney, Крис Рено / Chris Renaud) [2016 г., мультфильм, комедия, семейный, HDTVRip] Dub (чистый звук) + hardsub (Kor) 90ytr90
2700 | 27

0 | 473

38

05.09.2016 14:18

T Зарубежные мультфильмы Тайная жизнь домашних животных / The Secret Life of Pets (Ярроу Чейни / Yarrow Cheney, Крис Рено / Chris Renaud) [2016 г., мультфильм, комедия, семейный, TS] Dub (чистый звук) 90ytr90
414 | 4

0 | 827

45

22.08.2016 15:39

T Зарубежные мультфильмы Тайная жизнь домашних животных / The Secret Life of Pets (Ярроу Чейни, Крис Рено) [2016 г., мультфильм, комедия, семейный, HDTVRip] Dub (Line) makkol
2 | 0

0 | 570

57

01.09.2016 13:02

Научно-популярные фильмы Тайная жизнь Eвропейских млекопитающих: История Волка / The Secret Life Of European Mammals: The Wolf's Story [2003 г., документальный, TVRip] VO ARI71
0 | 0

0 | 554

1

24.08.2015 19:43

Научно-популярные фильмы Тайная жизнь европейских млекопитающих: Страж сада - ёж / The Secret Life Of European Mammals: The Garden Warrior - The Hedgehog (Николя Груа) [2007 г., документальный, флора, фауна, TVRip] VO ARI71
2 | 0

0 | 477

2

17.08.2016 20:49


Яндекс.Метрика powered by Sphinx


В Н И М А Н И Е
Сайт не распространяет и не хранит электронные версии произведений, а лишь бесплатно и без коммерческой выгоды (не требуя взамен платы,
SMS и т.д.) предоставляет доступ к создаваемому пользователями каталогу ссылок на торрент-файлы, которые содержат только списки хеш-сумм.
Убедительная просьба с жалобами обращаться напрямую к пользователю, разместившему торрент файл.

Вверх