Loading...
Error

Американская пума / American Cougar (Джеф Хоган) [2011 г., документальный, природа, флора, фауна, HDTVRip] VO

Статистика раздачи
Размер:  699 MB   |    Зарегистрирован:  5 месяцев 10 дней   |    Скачан:  1 раз

Полного источника не было: 4 месяца 19 дней

Сидов:  0  |  0 KB/s  ]   Личеров:  0  |  0 KB/s  ]

* - сиды/пиры с внешних источников

   
 
Автор Сообщение

ARI71 Пол:Муж

29-Июн-2016 18:51

Американская пума / American Cougar


Год выпуска: 2011
Жанр: документальный, природа, флора, фауна
Страна: США Nat Geo Wild
Режиссер: Джеф Хоган
Сюжет фильма:
За последние 10 лет жизнь для пумы в Джексон Хоул и прилегающих районах резко изменилась. Некогда стоящие на вершине хищного мира лишь с небольшой конкуренцией со стороны других животных, теперь пумы вынуждены делить свою территорию с другими охотниками высокого уровня, такими как волки из парка Йеллоустоун и медведи гризли, популяция которых все увеличивается. Используя высокотехнологические методы науки, исследовательские работы и нашу передвижную лабораторию для наблюдения за животными, Брун Смит примет участие в нашем путешествии, чтобы раскрыть нам те приемы, которые использует пума, чтобы выжить в этой новой враждебной среде. Этот совершенно новый взгляд на пум приближает нас к ним, как никогда раньше.
Качество видео: HDTVRip

Продолжительность: 00:44:59
Формат: AVI
Видео: XviD, 720x400, ~1972 kbps
Аудио: русский, одноголосый закадровый (профессиональный), MP2 2.0, ~192.00 kbps

Код:

Общее
Полное имя : D:\Amerikanskaja.puma.2011.HDTVRip.avi
Формат : AVI
Формат/Информация : Audio Video Interleave
Размер файла : 699 Мбайт
Продолжительность : 44 м.
Общий поток : 2174 Кбит/сек
Программа кодирования : VirtualDubMod 1.5.10.3 | www.virtualdub-fr.org || (build 2550/release)
Библиотека кодирования : VirtualDubMod build 2550/release

Видео
Идентификатор : 0
Формат : MPEG-4 Visual
Профиль формата : Advanced Simple@L5
Параметр BVOP формата : 1
Параметр QPel формата : Нет
Параметр GMC формата : Без точки перехода
Параметр матрицы формата : Выборочная
Идентификатор кодека : XVID
Идентификатор кодека/Подсказка : XviD
Продолжительность : 44 м.
Битрейт : 1972 Кбит/сек
Ширина : 720 пикселей
Высота : 400 пикселей
Соотношение сторон : 16:9
Частота кадров : 25,000 кадров/сек
Цветовое пространство : YUV
Субдискретизация насыщенности : 4:2:0
Битовая глубина : 8 бит
Тип развёртки : Прогрессивная
Метод сжатия : С потерями
Бит/(Пиксели*Кадры) : 0.274
Размер потока : 635 Мбайт (91%)
Библиотека кодирования : XviD 73

Аудио
Идентификатор : 1
Формат : MPEG Audio
Версия формата : Version 1
Профиль формата : Layer 2
Идентификатор кодека : 50
Продолжительность : 44 м.
Вид битрейта : Постоянный
Битрейт : 192 Кбит/сек
Каналы : 2 канала
Частота : 48,0 КГц
Метод сжатия : С потерями
Размер потока : 61,8 Мбайт (9%)
Выравнивание : Соединение по промежуткам
Продолжительность промежутка : 40 мс. (1,00 видеокадр)
Время предзагрузки промежутка : 504 мс.
picpicpicpic
Для увеличения картинки щелкните мышкой по превью

Этот торрент недоступен для скачивания без регистрации, однако доступен по публичной magnet-ссылке (источники с публичных трекеров). Перед использованием ссылки прочтите, пожалуйста Пользовательское соглашение, а также как можно дольше оставайтесь на раздаче! Для того, чтобы скачать сам торрент-файл (который видит больше источников), а также для того, чтобы поблагодарить релизера, вам необходимо зарегистрироваться. Если регистрироваться лень - вы можете также попробовать скачать релиз по нашим партнерским ссылкам ниже.

[underverse.su].t67633.torrent
Трекер: Зарегистрирован   [ 29.06.2016 18:51 ]  

Статус: проверено (by makkol at 29.06.2016 22:00)
Поблагодарили: пока никто не поблагодарил...
Тип торрента: публичный - доступные источники с открытых трекеров: 
Размер: 699 MB (занимает 0,16 DVDR, для записи нужно 1 болванка DVDR/RW)
 
 
Похожие темы
Форум Тема Автор Торрент Отв. Посл. сооб.
Зарубежное кино [DVDRip, Low-Res HDRip, и т.д.] Американская история Х / American History X (Тони Кей / Tony Kaye) [1998 г., драма, криминал, BDRip-AVC] MVO (West Video) + Original (Eng) + Sub (Rus, Eng) M-i-i-i-ke
22 | 1

2 | 1549

2

22.02.2016 19:48

Зарубежное кино [DVDRip, Low-Res HDRip, и т.д.] Американский бизон / American Buffalo (Майкл Корренте / Michael Corrente) [1996 г., драма, экранизация, HDRip] DVO + AVO (П.Карцев) 90ytr90
6 | 0

0 | 813

1

26.11.2016 08:10

Зарубежное кино [DVDRip, Low-Res HDRip, и т.д.] Американский пирог: Все в сборе / American Reunion (Джон Харвитц, Хейден Шлоссберг) [2012 г., комедия, BDRip] WeaSel
1 | 0

0 | 742

24

08.08.2012 19:57

Зарубежное кино [DVDRip, Low-Res HDRip, и т.д.] Американский боевой корабль / American Warships (Тандер Левин) [2012 г., боевик, HDRip] MVO [SyFy] + Original RG NewCinema
0 | 0

0 | 1106

47

21.10.2012 20:15

Зарубежное кино [DVDRip, Low-Res HDRip, и т.д.] Американская Мэри / American Mary (Джен Соска, Сильвия Соска) [2012 г., ужасы, триллер, DVDRip] DVO [den904, DeadSno] RG NewCinema
7 | 0

3 | 1531

33

31.01.2013 12:21

Зарубежное кино [DVDRip, Low-Res HDRip, и т.д.] Американская Мэри / American Mary (Джен Соска / Jen Soska, Сильвия Соска / Sylvia Soska) [2012 г., ужасы, триллер, HDRip] DVO Gaarochi
7 | 0

0 | 986

6

22.03.2013 15:58

Зарубежное кино [DVDRip, Low-Res HDRip, и т.д.] Американская карусель / Roundabout American (Борис Уэкслер) [2012 г., комедия, SATRip] DVO Паукан
1 | 0

0 | 1581

13

14.05.2013 13:10

Зарубежное кино [DVDRip, Low-Res HDRip, и т.д.] Американская карусель / Roundabout American (Борис Уэкслер) [2012 г., комедия, HDTVRip] MVO RG NewCinema
8 | 0

0 | 1372

22

23.05.2013 11:21

Зарубежное кино [DVDRip, Low-Res HDRip, и т.д.] Американская Мэри / American Mary (Джен Соска, Сильвия Соска) [2012 г., Ужасы, BDRip-AVC] DVO (RUS, Влад & Снежинка) + Original (ENG) + Subs (RUS, ENG) Ведьмочка
13 | 0

0 | 614

3

23.08.2014 17:19

Зарубежное кино [DVDRip, Low-Res HDRip, и т.д.] Американская Мэри / American Mary (Джен Соска, Сильвия Соска) [2012 г., Ужасы, BDRip-AVC] DVO (RUS, Влад & Снежинка) + Original (ENG) + Subs (RUS, ENG) Ведьмочка
9 | 0

0 | 644

1

23.08.2014 17:22


Яндекс.Метрика powered by Sphinx


В Н И М А Н И Е
Сайт не распространяет и не хранит электронные версии произведений, а лишь бесплатно и без коммерческой выгоды (не требуя взамен платы,
SMS и т.д.) предоставляет доступ к создаваемому пользователями каталогу ссылок на торрент-файлы, которые содержат только списки хеш-сумм.
Убедительная просьба с жалобами обращаться напрямую к пользователю, разместившему торрент файл.

Вверх