Loading...
Error

Мир природы. Секреты подземелий майя / Natural World. Secrets of the Maya Underworld (Тим Мартин) [2005 г., документальный, познавательный, HDTVRip] VO

Статистика раздачи
Размер:  697 MB   |    Зарегистрирован:  5 месяцев 10 дней   |    Скачан:  5 раз

Полного источника не было: 9 дней

Сидов:  0  |  0 KB/s  ]   Личеров:  0  |  0 KB/s  ]

* - сиды/пиры с внешних источников

   
 
Автор Сообщение

ARI71 Пол:Муж

29-Июн-2016 16:05

Мир природы. Секреты подземелий майя / Natural World. Secrets of the Maya Underworld


Год выпуска: 2005
Жанр: документальный, познавательный
Страна: Великобритания BBC
Режиссер: Тим Мартин
Сюжет фильма:
В отличие от других великих цивилизаций, таких как римская или древнеегипетская, империя майя не возникла на берегу великой реки. В действительности на Юкатане не было даже маленькой речки, но зато по всей территории были разбросаны пресноводные озера - сеноты. Индейцы майя верили в то, что они являются тайными вратами в подземный мир. Современные технологии позволили более тщательно исследовать эти озёра, открыв мир запутанных пещер, подземных рек, а также покрытых сталактитами и сталагмитами укромных уголков, где обитают летучие мыши и древнейшие живые организмы. Только сейчас стала проясняться картина зарождения этих подземных водоемов, связанная с появлением и исчезновением кораллового рифа, и ударом огромного астероида, который послужил причиной гибели динозавров. Программа рассказывает о причинах процветания цивилизации майя.
Качество видео: HDTVRip

Продолжительность: 00:48:40
Формат: AVI
Видео: XviD, 720x400, ~1800kbps
Аудио: русский, одноголосый закадровый (профессиональный), AC3 2.0, ~192.00 kbps

Код:

Общее
Полное имя : D:\BBC_Natural World_Secrets of the Maya Underworld.HDTVRip.by RockeT [Virtus & KazTorrentS].avi
Формат : AVI
Формат/Информация : Audio Video Interleave
Размер файла : 697 Мбайт
Продолжительность : 48 м.
Общий поток : 2001 Кбит/сек
Программа кодирования : VirtualDubMod 1.5.10.3 | www.virtualdub-fr.org || (build 2550/release)
Библиотека кодирования : VirtualDubMod build 2550/release

Видео
Идентификатор : 0
Формат : MPEG-4 Visual
Профиль формата : Advanced Simple@L5
Параметр BVOP формата : 1
Параметр QPel формата : Нет
Параметр GMC формата : Без точки перехода
Параметр матрицы формата : Default (MPEG)
Идентификатор кодека : XVID
Идентификатор кодека/Подсказка : XviD
Продолжительность : 48 м.
Битрейт : 1800 Кбит/сек
Ширина : 720 пикселей
Высота : 400 пикселей
Соотношение сторон : 16:9
Частота кадров : 25,000 кадров/сек
Цветовое пространство : YUV
Субдискретизация насыщенности : 4:2:0
Битовая глубина : 8 бит
Тип развёртки : Прогрессивная
Метод сжатия : С потерями
Бит/(Пиксели*Кадры) : 0.250
Размер потока : 627 Мбайт (90%)
Библиотека кодирования : XviD 1.2.1 (UTC 2008-12-04)

Аудио
Идентификатор : 1
Формат : AC-3
Формат/Информация : Audio Coding 3
Расширение режима : CM (complete main)
Параметр Endianness формата : Big
Идентификатор кодека : 2000
Продолжительность : 48 м.
Вид битрейта : Постоянный
Битрейт : 192 Кбит/сек
Каналы : 2 канала
Расположение каналов : Front: L R
Частота : 48,0 КГц
Частота кадров : 31,250 кадров/сек (1536 spf)
Метод сжатия : С потерями
Размер потока : 66,8 Мбайт (10%)
Выравнивание : Разделение по промежуткам
Продолжительность промежутка : 40 мс. (1,00 видеокадр)
Время предзагрузки промежутка : 500 мс.
picpicpicpicpic
Для увеличения картинки щелкните мышкой по превью

Этот торрент недоступен для скачивания без регистрации, однако доступен по публичной magnet-ссылке (источники с публичных трекеров). Перед использованием ссылки прочтите, пожалуйста Пользовательское соглашение, а также как можно дольше оставайтесь на раздаче! Для того, чтобы скачать сам торрент-файл (который видит больше источников), а также для того, чтобы поблагодарить релизера, вам необходимо зарегистрироваться. Если регистрироваться лень - вы можете также попробовать скачать релиз по нашим партнерским ссылкам ниже.

[underverse.su].t67627.torrent
Трекер: Зарегистрирован   [ 29.06.2016 16:05 ]  

Статус: проверено (by makkol at 29.06.2016 21:56)
Поблагодарили: пока никто не поблагодарил...
Тип торрента: публичный - доступные источники с открытых трекеров: 
Размер: 697 MB (занимает 0,16 DVDR, для записи нужно 1 болванка DVDR/RW)
 
 
Похожие темы
Форум Тема Автор Торрент Отв. Посл. сооб.
BBC Мир природы. Из жизни крабов / BBC. The Natural World. Claws [2009 г., документальный, природа, фауна, SatRip] VO ARI71
0 | 0

0 | 640

10

18.08.2015 08:12

BBC Мир природы - Горы тропических дождей / Natural World - The Mountains of the Monsoon [2009 г., документальный, природа, флора, фауна, HDTVRip 720p] Dub ARI71
0 | 0

0 | 546

2

09.06.2016 20:02

BBC Мир природы - Горы тропических дождей / Natural World - The Mountains of the Monsoon [2009 г., документальный, природа, флора, фауна, HDTVRip] VO ARI71
1 | 0

0 | 389

2

23.06.2016 07:49

BBC Мир природы. Кукушка / The Natural World. Cuckoo (Тим Мартин) [2007 г., документальный, природа, фауна, птицы, SatRip] VO ARI71
1 | 0

0 | 487

1

28.06.2016 15:14

BBC Мир природы. Кукушка / The Natural World. Cuckoo (Тим Мартин) [2007 г., документальный, флора, фауна, HDTVRip 720p] Dub + Original (Eng) + Sub (Eng) ARI71
0 | 0

0 | 513

1

28.06.2016 16:12


Яндекс.Метрика powered by Sphinx


В Н И М А Н И Е
Сайт не распространяет и не хранит электронные версии произведений, а лишь бесплатно и без коммерческой выгоды (не требуя взамен платы,
SMS и т.д.) предоставляет доступ к создаваемому пользователями каталогу ссылок на торрент-файлы, которые содержат только списки хеш-сумм.
Убедительная просьба с жалобами обращаться напрямую к пользователю, разместившему торрент файл.

Вверх