Loading...
Error

BBC. Кошачьи тайны / Cat Watch 2014: The New Horizon Experiment / Cats uncovered (1-3 серии из 3) [2014 г., документальный, познавательный, природа, животные, SatRip] Dub

Статистика раздачи
Размер:  2,09 GB   |    Зарегистрирован:  5 месяцев 8 дней   |    Скачан:  6 раз

Полного источника не было: 2 месяца 5 дней

Сидов:  0  |  0 KB/s  ]   Личеров:  0  |  0 KB/s  ]

* - сиды/пиры с внешних источников

   
 
Автор Сообщение

makkol Пол:Муж

29-Июн-2016 13:28

BBC. Кошачьи тайны / Cat Watch 2014: The New Horizon Experiment / Cats uncovered


Год выпуска: 2014
Жанр: документальный, познавательный, природа, животные
Производство: Великобритания [BBC]
Режиссер: Никола Кук
Сюжет фильма:
Кошки - пожалуй наиболее распространённое домашнее животное на нашей планете. Они живут во многих домах Англии, США, России и конечно же Египта, где кошка с незапамятных времен считается священным животным. Однако мы настолько привыкли к этим созданиям, что не отдаём отчёта в том, что кошки на протяжени миллионов лет эволюционировали в идеальных хищников.

Качество видео: SatRip

Продолжительность: 3 x ~00:51:00
Формат: AVI
Видео: XviD, 720x400 (16:9), 25.000 fps, ~1750 kbps
Аудио: русский, документальный дубляж, AC3 2.0, 48 kHz, 192 kbps
01. С точки зрения кошек / A Cat's eye view
В эпизоде «С точки зрения кошек» ведущие кошачьи ученые с мировым именем изучают тайные стороны жизни наших питомцев и расскажут о том, как наши хвостатые друзья видят, слышат и осязают мир вокруг себя.

02. Лев у вас на коленях / The Lion in Your Lap
В эпизоде фильма «Лев у вас на коленях» вы увидите, как быстро ваш милый пушистый котик превращается в свирепого и беспощадного хищника.

03. Язык кошек / Cat Talk
Когда кошка машет хвостом, она недовольна, а когда сидит к вам спиной, значит, доверяет. Так ли это? В эпизоде «Язык кошек» ведущие мировые знатоки кошек расскажут о том, что ваш питомец хочет сказать вам, когда мяукает, урчит или машет хвостом.

Код:

Формат                                   : AVI
Формат/Информация                        : Audio Video Interleave
Размер файла                             : 723 Мбайт
Продолжительность                        : 51 м.
Общий поток                              : 1952 Кбит/сек
Название фильма                          : Cat Watch 2014: The New Horizon Experiment (01. A Cat's Eye View)
Режиссёр                                 : SATRip by Thunder
Программа кодирования                    : VirtualDubMod 1.5.10.3 | www.virtualdub-fr.org || (build 2550/release)
Формат оригинала/Имя                     : Documentary

Видео
Идентификатор                            : 0
Формат                                   : MPEG-4 Visual
Профиль формата                          : Advanced Simple@L5
Параметр BVOP формата                    : 1
Параметр QPel формата                    : Нет
Параметр GMC формата                     : Без точки перехода
Параметр матрицы формата                 : Default (H.263)
Идентификатор кодека                     : XVID
Идентификатор кодека/Подсказка           : XviD
Продолжительность                        : 51 м.
Битрейт                                  : 1750 Кбит/сек
Ширина                                   : 720 пикселей
Высота                                   : 400 пикселей
Соотношение сторон                       : 16:9
Частота кадров                           : 25,000 кадров/сек
Цветовое пространство                    : YUV
Субдискретизация насыщенности            : 4:2:0
Битовая глубина                          : 8 бит
Тип развёртки                            : Прогрессивная
Метод сжатия                             : С потерями
Бит/(Пиксели*Кадры)                      : 0.243
Размер потока                            : 648 Мбайт (90%)
Библиотека кодирования                   : XviD 1.2.1 (UTC 2008-12-04)

Аудио
Идентификатор                            : 1
Формат                                   : AC-3
Формат/Информация                        : Audio Coding 3
Расширение режима                        : CM (complete main)
Параметр Endianness формата              : Big
Идентификатор кодека                     : 2000
Продолжительность                        : 51 м.
Вид битрейта                             : Постоянный
Битрейт                                  : 192 Кбит/сек
Каналы                                   : 2 канала
Расположение каналов                     : Front: L R
Частота                                  : 48,0 КГц
Частота кадров                           : 31,250 кадров/сек (1536 spf)
Метод сжатия                             : С потерями
Размер потока                            : 71,1 Мбайт (10%)
Выравнивание                             : Разделение по промежуткам
Продолжительность промежутка             : 40  мс. (1,00 видеокадр)
Время предзагрузки промежутка            : 500  мс.
Автор рипа: Thunder

picpicpicpic
picpicpicpic
Для увеличения картинки щелкните мышкой по превью

Этот торрент недоступен для скачивания без регистрации, однако доступен по публичной magnet-ссылке (источники с публичных трекеров). Перед использованием ссылки прочтите, пожалуйста Пользовательское соглашение, а также как можно дольше оставайтесь на раздаче! Для того, чтобы скачать сам торрент-файл (который видит больше источников), а также для того, чтобы поблагодарить релизера, вам необходимо зарегистрироваться. Если регистрироваться лень - вы можете также попробовать скачать релиз по нашим партнерским ссылкам ниже.

[underverse.su].t67614.torrent
Трекер: Зарегистрирован   [ 29.06.2016 13:28 ]  

Статус: проверено (by makkol at 30.06.2016 20:50)
Поблагодарили: 1 человек
Тип торрента: публичный - доступные источники с открытых трекеров: 
Размер: 2,09 GB (занимает 0,48 DVDR, для записи нужно 1 болванка DVDR/RW)
 
 

Яндекс.Метрика powered by Sphinx


В Н И М А Н И Е
Сайт не распространяет и не хранит электронные версии произведений, а лишь бесплатно и без коммерческой выгоды (не требуя взамен платы,
SMS и т.д.) предоставляет доступ к создаваемому пользователями каталогу ссылок на торрент-файлы, которые содержат только списки хеш-сумм.
Убедительная просьба с жалобами обращаться напрямую к пользователю, разместившему торрент файл.

Вверх