Loading...
Error

Дофус – Книга 1: Джулит / Dofus - Livre 1: Julith (Жан-Жак Дени, Энтони Ру) [2015 г., мультфильм, фэнтези, комедия, приключения, HDRip] VO

Статистика раздачи
Размер:  1,46 GB   |    Зарегистрирован:  1 год 2 месяца   |    Скачан:  11 раз
Сидов:  1  |  0 KB/s  ]   Личеров:  0  |  0 KB/s  ]

* - сиды/пиры с внешних источников

   
 
Автор Сообщение

makkol Пол:Муж

29-Июн-2016 12:54

Дофус – Книга 1: Джулит
Dofus - Livre 1: Julith


Год выпуска: 2015
Жанр: мультфильм, фэнтези, комедия, приключения
Производство: Франция [Ankama Animations, CNC, France 3 Cinema, Pictanovo Nord-Pas-de-Calais]
Режиссер: Жан-Жак Дени, Энтони Ру
Роли озвучивали: Сован Деланоэ, Жан-Клод Донда, Эммануэль Гради, Летиция Лефевр, Франсуа Сьенер
Сюжет фильма:
В антикварном магазине бывалого путешественника Керуба Крепина — как в пещере сокровищ. Здесь можно найти немало древних вещей, в числе которых оружие, амулеты, артефакты, некоторые из которых — настоящая драгоценность, а некоторые даже наполнены волшебной силой. Десятилетний приёмный сын Керубима мальчик по имени Жорис абсолютно счастлив, однако спокойная жизнь прекращается после того, как Жорис задумал отыскать своего кумира, суперзвезду Гоббоула: именно в этот момент в городе появляется коварная и мстительная ведьма Джулит…

  • Мировая премьера: 7 ноября 2015


Качество видео: HDRip

Продолжительность: 01:47:53
Формат: AVI
Видео: XviD, 720x384 (1.85:1), 25.000 fps, 1627 kbps
Аудио: русский, любительский одноголосый закадровый, AC3 2.0, 48 kHz, 192 kbps

Код:

Format : AVI
Format/Info : Audio Video Interleave
Overall bit rate : 1 830 Kbps
Writing application : VirtualDubMod 1.5.10.2 (build 2540/release)
Writing library : VirtualDubMod build 2540/release

Video
ID : 0
Format : MPEG-4 Visual
Format profile : Advanced Simple@L5
Format settings, BVOP : 2
Format settings, QPel : No
Format settings, GMC : No warppoints
Format settings, Matrix : Default (MPEG)
Codec ID : XVID
Codec ID/Hint : XviD
Bit rate : 1 627 Kbps
Width : 720 pixels
Height : 384 pixels
Display aspect ratio : 1.85:1
Frame rate : 25.000 fps
Color space : YUV
Chroma subsampling : 4:2:0
Bit depth : 8 bits
Scan type : Progressive
Compression mode : Lossy
Bits/(Pixel*Frame) : 0.235
Stream size : 10.6 MiB (89%)
Writing library : XviD 1.2.1 (UTC 2008-12-04)

Audio
ID : 1
Format : AC-3
Format/Info : Audio Coding 3
Mode extension : CM (complete main)
Format settings, Endianness : Big
Codec ID : 2000
Bit rate mode : Constant
Bit rate : 192 Kbps
Channel(s) : 2 channels
Channel positions : Front: L R
Sampling rate : 48.0 KHz
Compression mode : Lossy
Stream size : 1.25 MiB (10%)
Alignment : Split accross interleaves
Interleave, duration : 40 ms (1.01 video frame)
Interleave, preload duration : 500 ms
picpicpicpicpic
Для увеличения картинки щелкните мышкой по превью

Этот торрент недоступен для скачивания без регистрации, однако доступен по публичной magnet-ссылке (источники с публичных трекеров). Перед использованием ссылки прочтите, пожалуйста Пользовательское соглашение, а также как можно дольше оставайтесь на раздаче! Для того, чтобы скачать сам торрент-файл (который видит больше источников), а также для того, чтобы поблагодарить релизера, вам необходимо зарегистрироваться. Если регистрироваться лень - вы можете также попробовать скачать релиз по нашим партнерским ссылкам ниже.

[underverse.su].t67613.torrent
Трекер: Зарегистрирован   [ 29.06.2016 12:54 ]  

Статус: проверено (by makkol at 02.07.2016 22:52)
Поблагодарили: пока никто не поблагодарил...
Тип торрента: публичный - доступные источники с открытых трекеров: 
Размер: 1,46 GB (занимает 0,33 DVDR, для записи нужно 1 болванка DVDR/RW)
 
 

Яндекс.Метрика powered by Sphinx


В Н И М А Н И Е
Сайт не распространяет и не хранит электронные версии произведений, а лишь бесплатно и без коммерческой выгоды (не требуя взамен платы,
SMS и т.д.) предоставляет доступ к создаваемому пользователями каталогу ссылок на торрент-файлы, которые содержат только списки хеш-сумм.
Убедительная просьба с жалобами обращаться напрямую к пользователю, разместившему торрент файл.

Вверх