Loading...
Error

Приходи на меня посмотреть / И узрел я этот день / Come To See Me / Come Watch Me / Nal boreowayo (Ли Чхоль-ха) [2016 г., триллер, WEB-DLRip] DVO

Статистика раздачи
Размер:  1,45 GB   |    Зарегистрирован:  5 месяцев 6 дней   |    Скачан:  5 раз

Полного источника не было: 3 месяца 14 дней

Сидов:  0  |  0 KB/s  ]   Личеров:  0  |  0 KB/s  ]

* - сиды/пиры с внешних источников

   
 
Автор Сообщение

makkol Пол:Муж

28-Июн-2016 22:02

Приходи на меня посмотреть / И узрел я этот день
Come To See Me / Come Watch Me / Nal boreowayo


Год выпуска: 2016
Жанр: триллер
Производство: Корея Южная [OAL Media Contents Group]
Режиссер: Ли Чхоль-ха
В ролях: Кан Йе Вон, Ли Сан Юн, Чхве Джин Хо, Ю Гон, Ким Чон Су, Чо Чжэ Юн
Сюжет фильма:
В руки программного директора телевидения попадает дневник. В нём содержится запись о женщине, которую, якобы, насильно привезли и удерживали в психиатрической лечебнице. Больница сгорела год назад, в тот же день был убит начальник полиции. Выясняется, что по подозрению в убийстве арестовали ту самую женщину. История заинтересовала программного директора, он решает разобраться в ней и узнать правду.

  • Мировая премьера: 7 апреля 2016


Качество видео: WEB-DLRip

Продолжительность: 01:31:01
Формат: AVI
Видео: XviD, 720x304 (2.35:1), 23.976 fps, 2079 kbps
Аудио: русский, любительский двухголосый закадровый, AC3 2.0, 48 kHz, 192 kbps

Код:

Формат : AVI
Формат/Информация : Audio Video Interleave
Размер файла : 1,45 Гбайт
Продолжительность : 1 ч. 31 м.
Общий поток : 2281 Кбит/сек
Программа кодирования : VirtualDubMod 1.5.10.3 | (build 2550/release)
Библиотека кодирования : VirtualDubMod build 2550/release

Видео
Идентификатор : 0
Формат : MPEG-4 Visual
Параметр BVOP формата : 1
Параметр QPel формата : Нет
Параметр GMC формата : Без точки перехода
Параметр матрицы формата : Default (H.263)
Идентификатор кодека : XVID
Идентификатор кодека/Подсказка : XviD
Продолжительность : 1 ч. 31 м.
Битрейт : 2079 Кбит/сек
Ширина : 720 пикселей
Высота : 304 пикселя
Соотношение сторон : 2,35:1
Частота кадров : 23,976 (23976/1000) кадра/сек
Цветовое пространство : YUV
Субдискретизация насыщенности : 4:2:0
Битовая глубина : 8 бит
Тип развёртки : Прогрессивная
Метод сжатия : С потерями
Бит/(Пиксели*Кадры) : 0.396
Размер потока : 1,32 Гбайт (91%)
Библиотека кодирования : XviD 1.2.1 (UTC 2008-12-04)

Аудио
Идентификатор : 1
Формат : AC-3
Формат/Информация : Audio Coding 3
Расширение режима : CM (complete main)
Параметр Endianness формата : Big
Идентификатор кодека : 2000
Продолжительность : 1 ч. 31 м.
Вид битрейта : Постоянный
Битрейт : 192 Кбит/сек
Каналы : 2 канала
Расположение каналов : Front: L R
Частота : 48,0 КГц
Частота кадров : 31,250 кадров/сек (1536 spf)
Метод сжатия : С потерями
Размер потока : 125 Мбайт (8%)
Выравнивание : Разделение по промежуткам
Продолжительность промежутка : 42 мс. (1,00 видеокадр)
Время предзагрузки промежутка : 500 мс.
Перевод: Сергей Скворцов
Озвучивание: den904 & DeadSno
picpicpicpicpic
Для увеличения картинки щелкните мышкой по превью

Этот торрент недоступен для скачивания без регистрации, однако доступен по публичной magnet-ссылке (источники с публичных трекеров). Перед использованием ссылки прочтите, пожалуйста Пользовательское соглашение, а также как можно дольше оставайтесь на раздаче! Для того, чтобы скачать сам торрент-файл (который видит больше источников), а также для того, чтобы поблагодарить релизера, вам необходимо зарегистрироваться. Если регистрироваться лень - вы можете также попробовать скачать релиз по нашим партнерским ссылкам ниже.

[underverse.su].t67606.torrent
Трекер: Зарегистрирован   [ 28.06.2016 22:02 ]  

Статус: проверено (by makkol at 02.07.2016 22:48)
Поблагодарили: пока никто не поблагодарил...
Тип торрента: публичный - доступные источники с открытых трекеров: 
Размер: 1,45 GB (занимает 1/3 DVDR, для записи нужно 1 болванка DVDR/RW)
 
 
Похожие темы
Форум Тема Автор Торрент Отв. Посл. сооб.
Наше кино [DVDRip, Low-Res HDRip, и т.д.] Приходи на меня посмотреть (Михаил Агранович, Олег Янковский) [2000 г., мелодрама, DVDRip] GUree
0 | 0

1 | 1249

1

29.04.2010 20:15


Яндекс.Метрика powered by Sphinx


В Н И М А Н И Е
Сайт не распространяет и не хранит электронные версии произведений, а лишь бесплатно и без коммерческой выгоды (не требуя взамен платы,
SMS и т.д.) предоставляет доступ к создаваемому пользователями каталогу ссылок на торрент-файлы, которые содержат только списки хеш-сумм.
Убедительная просьба с жалобами обращаться напрямую к пользователю, разместившему торрент файл.

Вверх