Loading...
Error

Мир природы. Кукушка / The Natural World. Cuckoo (Тим Мартин) [2007 г., документальный, природа, фауна, птицы, SatRip] VO

Статистика раздачи
Размер:  557 MB   |    Зарегистрирован:  5 месяцев 10 дней   |    Скачан:  1 раз

Полного источника не было: 4 месяца 18 дней

Сидов:  0  |  0 KB/s  ]   Личеров:  0  |  0 KB/s  ]

* - сиды/пиры с внешних источников

   
 
Автор Сообщение

ARI71 Пол:Муж

28-Июн-2016 15:14

Мир природы. Кукушка / The Natural World. Cuckoo


Год выпуска: 2007
Жанр: документальный, природа, фауна, птицы
Страна: Великобритания BBC
Режиссер: Тим Мартин
Сюжет фильма:
Кукушки интриговали и вдохновляли людей на протяжении тысяч лет. Греческие философы, поэты и даже Шекспир писали об этих птицах и их сомнительной репутации. Насколько правдивы были эти истории? Программа, которая создавалась на протяжении двух лет, раскрывает удивительные факты из жизни кукушек.
Качество видео: SatRip

Продолжительность: 00:48:43
Формат: AVI
Видео: XviD, 704x400, ~1462 kbps
Аудио: русский, одноголосый (профессиональный), MP3 2.0, ~128.00 kbps

Код:

Общее
Полное имя : D:\BBC.Mir.prirody.Kukushka.2008.XviD.SATRip.avi
Формат : AVI
Формат/Информация : Audio Video Interleave
Размер файла : 557 Мбайт
Продолжительность : 48 м.
Общий поток : 1600 Кбит/сек
Программа кодирования : VirtualDubMod 1.5.10.2 (build 2540/release)
Библиотека кодирования : VirtualDubMod build 2540/release

Видео
Идентификатор : 0
Формат : MPEG-4 Visual
Профиль формата : Advanced Simple@L5
Параметр BVOP формата : 2
Параметр QPel формата : Нет
Параметр GMC формата : Без точки перехода
Параметр матрицы формата : Default (H.263)
Режим смешивания : Сжатый битовый поток
Идентификатор кодека : XVID
Идентификатор кодека/Подсказка : XviD
Продолжительность : 48 м.
Битрейт : 1462 Кбит/сек
Ширина : 704 пикселя
Высота : 400 пикселей
Соотношение сторон : 4:3
Соотношение сторон в оригинале : 16:9
Частота кадров : 25,000 кадров/сек
Цветовое пространство : YUV
Субдискретизация насыщенности : 4:2:0
Битовая глубина : 8 бит
Тип развёртки : Прогрессивная
Метод сжатия : С потерями
Бит/(Пиксели*Кадры) : 0.208
Размер потока : 509 Мбайт (91%)
Библиотека кодирования : XviD 1.2.1 (UTC 2008-12-04)

Аудио
Идентификатор : 1
Формат : MPEG Audio
Версия формата : Version 1
Профиль формата : Layer 3
Режим : Joint stereo
Расширение режима : MS Stereo
Идентификатор кодека : 55
Идентификатор кодека/Подсказка : MP3
Продолжительность : 48 м.
Вид битрейта : Постоянный
Битрейт : 128 Кбит/сек
Каналы : 2 канала
Частота : 48,0 КГц
Метод сжатия : С потерями
Размер потока : 44,6 Мбайт (8%)
Выравнивание : Разделение по промежуткам
Продолжительность промежутка : 40 мс. (1,00 видеокадр)
Время предзагрузки промежутка : 500 мс.
Библиотека кодирования : LAME3.97 (alpha)
picpicpicpicpic
Для увеличения картинки щелкните мышкой по превью

Этот торрент недоступен для скачивания без регистрации, однако доступен по публичной magnet-ссылке (источники с публичных трекеров). Перед использованием ссылки прочтите, пожалуйста Пользовательское соглашение, а также как можно дольше оставайтесь на раздаче! Для того, чтобы скачать сам торрент-файл (который видит больше источников), а также для того, чтобы поблагодарить релизера, вам необходимо зарегистрироваться. Если регистрироваться лень - вы можете также попробовать скачать релиз по нашим партнерским ссылкам ниже.

[underverse.su].t67598.torrent
Трекер: Зарегистрирован   [ 28.06.2016 15:14 ]  

Статус: проверено (by makkol at 29.06.2016 09:24)
Поблагодарили: пока никто не поблагодарил...
Тип торрента: публичный - доступные источники с открытых трекеров: 
Размер: 557 MB (занимает 0,12 DVDR, для записи нужно 1 болванка DVDR/RW)
 
 
Похожие темы
Форум Тема Автор Торрент Отв. Посл. сооб.
BBC Мир природы. Из жизни крабов / BBC. The Natural World. Claws [2009 г., документальный, природа, фауна, SatRip] VO ARI71
0 | 0

0 | 640

10

18.08.2015 08:12

BBC Мир природы - Горы тропических дождей / Natural World - The Mountains of the Monsoon [2009 г., документальный, природа, флора, фауна, HDTVRip 720p] Dub ARI71
0 | 0

0 | 543

2

09.06.2016 20:02

BBC Мир природы - Горы тропических дождей / Natural World - The Mountains of the Monsoon [2009 г., документальный, природа, флора, фауна, HDTVRip] VO ARI71
6 | 0

0 | 387

2

23.06.2016 07:49

BBC Мир природы. Кукушка / The Natural World. Cuckoo (Тим Мартин) [2007 г., документальный, флора, фауна, HDTVRip 720p] Dub + Original (Eng) + Sub (Eng) ARI71
0 | 0

0 | 513

1

28.06.2016 16:12

BBC Мир природы. Секреты подземелий майя / Natural World. Secrets of the Maya Underworld (Тим Мартин) [2005 г., документальный, познавательный, HDTVRip] VO ARI71
15 | 1

0 | 594

5

29.06.2016 16:05


Яндекс.Метрика powered by Sphinx


В Н И М А Н И Е
Сайт не распространяет и не хранит электронные версии произведений, а лишь бесплатно и без коммерческой выгоды (не требуя взамен платы,
SMS и т.д.) предоставляет доступ к создаваемому пользователями каталогу ссылок на торрент-файлы, которые содержат только списки хеш-сумм.
Убедительная просьба с жалобами обращаться напрямую к пользователю, разместившему торрент файл.

Вверх