Loading...
Error

Питбуль. Новые порядки / Pitbull. Nowe porzadki (Патрик Вега) [2016 г., боевик, триллер, драма, криминал, HDRip] VO

Статистика раздачи
Размер:  1,45 GB   |    Зарегистрирован:  5 месяцев 13 дней   |    Скачан:  22 раза

Полного источника не было: 28 дней

Сидов:  0  |  0 KB/s  ]   Личеров:  0  |  0 KB/s  ]

* - сиды/пиры с внешних источников

   
 
Автор Сообщение

makkol Пол:Муж

28-Июн-2016 12:51

Питбуль. Новые порядки / Pitbull. Nowe porzadki


Год выпуска: 2016
Жанр: боевик, триллер, драма, криминал
Производство: Польша [Ent One, Vue Movie Distribution]
Режиссер: Патрик Вега
В ролях: Богуслав Линда, Пётр Страмовски, Майя Осташевска, Анджей Грабовски, Кшиштоф Чечот, Агнешка Дигант, Юлия Погребиньска, Михал Кула, Павел Круликовски.
Сюжет фильма:
Когда "Майами" - полицейский из мокотовской команды - разрабатывает план по раскрытию банды преступников, его пути пересекаются с героями прежнего фильма "Питбуль" - "Геббельсом", Игорем и Барщиком, которые работают по делу серийных убийств. Полицейские обеих команд начинают понимать, что имеют дело с самой сильной преступной организацией в Польше и, если хотят её уничтожить, должны действовать сообща...

  • Мировая премьера: 22 января 2016


Качество видео: HDRip

Продолжительность: 02:12:00
Формат: AVI
Видео: XviD, 720x304 (2.35:1), 24.000 fps, 1373 kbps
Аудио: русский, любительский одноголосый закадровый (Хихикающий доктор), AC3 2.0, 48 kHz, 192 kbps

Код:

Формат                                   : AVI
Формат/Информация                        : Audio Video Interleave
Размер файла                             : 1,45 Гбайт
Продолжительность                        : 2 ч. 11 м.
Общий поток                              : 1574 Кбит/сек
Программа кодирования                    : VirtualDubMod 1.5.10.3 | www.virtualdub-fr.org || (build 2550/release)
Библиотека кодирования                   : VirtualDubMod build 2550/release

Видео
Идентификатор                            : 0
Формат                                   : MPEG-4 Visual
Профиль формата                          : Advanced Simple@L5
Параметр BVOP формата                    : 1
Параметр QPel формата                    : Нет
Параметр GMC формата                     : Без точки перехода
Параметр матрицы формата                 : Выборочная
Идентификатор кодека                     : XVID
Идентификатор кодека/Подсказка           : XviD
Продолжительность                        : 2 ч. 11 м.
Битрейт                                  : 1373 Кбит/сек
Ширина                                   : 720 пикселей
Высота                                   : 304 пикселя
Соотношение сторон                       : 2,35:1
Частота кадров                           : 24,000 кадра/сек
Цветовое пространство                    : YUV
Субдискретизация насыщенности            : 4:2:0
Битовая глубина                          : 8 бит
Тип развёртки                            : Прогрессивная
Метод сжатия                             : С потерями
Бит/(Пиксели*Кадры)                      : 0.261
Размер потока                            : 1,27 Гбайт (87%)
Библиотека кодирования                   : XviD 73

Аудио
Идентификатор                            : 1
Формат                                   : AC-3
Формат/Информация                        : Audio Coding 3
Расширение режима                        : CM (complete main)
Параметр Endianness формата              : Big
Идентификатор кодека                     : 2000
Продолжительность                        : 2 ч. 11 м.
Вид битрейта                             : Постоянный
Битрейт                                  : 192 Кбит/сек
Каналы                                   : 2 канала
Расположение каналов                     : Front: L R
Частота                                  : 48,0 КГц
Битовая глубина                          : 16 бит
Метод сжатия                             : С потерями
Размер потока                            : 181 Мбайт (12%)
Выравнивание                             : Разделение по промежуткам
Продолжительность промежутка             : 42  мс. (1,00 видеокадр)
Время предзагрузки промежутка            : 500  мс.
picpicpicpicpic
Для увеличения картинки щелкните мышкой по превью

Этот торрент недоступен для скачивания без регистрации, однако доступен по публичной magnet-ссылке (источники с публичных трекеров). Перед использованием ссылки прочтите, пожалуйста Пользовательское соглашение, а также как можно дольше оставайтесь на раздаче! Для того, чтобы скачать сам торрент-файл (который видит больше источников), а также для того, чтобы поблагодарить релизера, вам необходимо зарегистрироваться. Если регистрироваться лень - вы можете также попробовать скачать релиз по нашим партнерским ссылкам ниже.

[underverse.su].t67592.torrent
Трекер: Зарегистрирован   [ 28.06.2016 12:51 ]  

Статус: проверено (by makkol at 02.07.2016 22:44)
Поблагодарили: пока никто не поблагодарил...
Тип торрента: публичный - доступные источники с открытых трекеров: 
Размер: 1,45 GB (занимает 1/3 DVDR, для записи нужно 1 болванка DVDR/RW)
 
 
Похожие темы
Форум Тема Автор Торрент Отв. Посл. сооб.
Зарубежное кино [DVDRip, Low-Res HDRip, и т.д.] Питбуль. Новые порядки / Pitbull. Nowe porzadki (Патрик Вега) [2016 г., боевик, триллер, драма, криминал, HDRip] MVO makkol
129 | 2

0 | 468

11

19.07.2016 22:12

Зарубежное кино [HDDVDRip / BDRip / WEB-DL / HDTV 1080/720р] Питбуль. Новые порядки / Pitbull. Nowe porzadki (Патрик Вега) [2016 г., боевик, триллер, драма, криминал, BDRip 720p] VO + Original makkol
23 | 0

0 | 492

9

28.06.2016 12:58

Зарубежное кино [HDDVDRip / BDRip / WEB-DL / HDTV 1080/720р] Питбуль. Новые порядки / Pitbull. Nowe porzadki (Патрик Вега) [2016 г., боевик, триллер, драма, криминал, BDRip 720p] MVO makkol
41 | 4

0 | 451

10

19.07.2016 22:20


Яндекс.Метрика powered by Sphinx


В Н И М А Н И Е
Сайт не распространяет и не хранит электронные версии произведений, а лишь бесплатно и без коммерческой выгоды (не требуя взамен платы,
SMS и т.д.) предоставляет доступ к создаваемому пользователями каталогу ссылок на торрент-файлы, которые содержат только списки хеш-сумм.
Убедительная просьба с жалобами обращаться напрямую к пользователю, разместившему торрент файл.

Вверх