Loading...
Error

Сент-Амур: Удовольствия любви / Saint Amour (Бенуа Делепин, Гюстав Керверн) [2016 г., комедия, WEB-DLRip] Dub (Line)

Статистика раздачи
Размер:  1,37 GB   |    Зарегистрирован:  5 месяцев 5 дней   |    Скачан:  19 раз
Сидов:  1  |  0 KB/s  ]   Личеров:  0  |  0 KB/s  ]

* - сиды/пиры с внешних источников

   
 
Автор Сообщение

makkol Пол:Муж

28-Июн-2016 11:11

Сент-Амур: Удовольствия любви / Saint Amour


Год выпуска: 2016
Жанр: комедия
Производство: Франция , Бельгия [Canal+ [fr], Centre National de la Cinématographie (CNC), Ciné, Département de la Charente]
Режиссер: Бенуа Делепин, Гюстав Керверн
В ролях: Жерар Депардье, Бенуа Пульворд, Венсан Лакост, Селин Саллетт, Гюстав Керверн, Андреа Ферреоль, Кьяра Мастроянни, Изиа Ижлен, Ана Жирардо, Мишель Уэльбек
Сюжет фильма:
Крестьянский увалень Брюно мечтает о женитьбе. Он больше не хочет быть фермером и заниматься разведением племенных быков. Его отец, стремясь помочь сыну преодолеть кризис, отправляется с ним в поездку по винодельческим регионам Франции. В пути их сопровождает незадачливый ловелас Майк. Трое авантюристов не только наслаждаются восхитительными винами, но и попадают в самые невероятные любовные истории.

  • Мировая премьера: 19 февраля 2016
  • Российская премьера: 26 мая 2016


Качество видео: WEB-DLRip

Продолжительность: 01:37:10
Формат: AVI
Видео: XviD, 720x400 (16:9), 25.000 fps, 1624 kbps
Аудио: русский, дублированный (чистый звук), AC3 2.0, 48 kHz, 384 kbps

Код:

Формат                                   : AVI
Формат/Информация                        : Audio Video Interleave
Размер файла                             : 1,37 Гбайт
Продолжительность                        : 1 ч. 37 м.
Общий поток                              : 2018 Кбит/сек
Название фильма                          : Rustorrents.info
Программа кодирования                    : VirtualDubMod 1.5.10.3 | www.virtualdub-fr.org || (build 2550/release)

Видео
Идентификатор                            : 0
Формат                                   : MPEG-4 Visual
Профиль формата                          : Advanced Simple@L5
Параметр BVOP формата                    : 2
Параметр QPel формата                    : Нет
Параметр GMC формата                     : Без точки перехода
Параметр матрицы формата                 : Выборочная
Идентификатор кодека                     : XVID
Идентификатор кодека/Подсказка           : XviD
Продолжительность                        : 1 ч. 37 м.
Битрейт                                  : 1624 Кбит/сек
Ширина                                   : 720 пикселей
Высота                                   : 400 пикселей
Соотношение сторон                       : 16:9
Частота кадров                           : 25,000 кадров/сек
Цветовое пространство                    : YUV
Субдискретизация насыщенности            : 4:2:0
Битовая глубина                          : 8 бит
Тип развёртки                            : Прогрессивная
Метод сжатия                             : С потерями
Бит/(Пиксели*Кадры)                      : 0.226
Размер потока                            : 1,10 Гбайт (80%)
Библиотека кодирования                   : XviD 1.2.1 (UTC 2008-12-04)

Аудио
Идентификатор                            : 1
Формат                                   : AC-3
Формат/Информация                        : Audio Coding 3
Расширение режима                        : CM (complete main)
Параметр Endianness формата              : Big
Идентификатор кодека                     : 2000
Продолжительность                        : 1 ч. 37 м.
Вид битрейта                             : Постоянный
Битрейт                                  : 384 Кбит/сек
Каналы                                   : 2 канала
Расположение каналов                     : Front: L R
Частота                                  : 48,0 КГц
Частота кадров                           : 31,250 кадров/сек (1536 spf)
Метод сжатия                             : С потерями
Размер потока                            : 267 Мбайт (19%)
Выравнивание                             : Разделение по промежуткам
Продолжительность промежутка             : 40  мс. (1,00 видеокадр)
Время предзагрузки промежутка            : 500  мс.
Релиз без рекламы


picpicpicpicpic
Для увеличения картинки щелкните мышкой по превью

Этот торрент недоступен для скачивания без регистрации, однако доступен по публичной magnet-ссылке (источники с публичных трекеров). Перед использованием ссылки прочтите, пожалуйста Пользовательское соглашение, а также как можно дольше оставайтесь на раздаче! Для того, чтобы скачать сам торрент-файл (который видит больше источников), а также для того, чтобы поблагодарить релизера, вам необходимо зарегистрироваться. Если регистрироваться лень - вы можете также попробовать скачать релиз по нашим партнерским ссылкам ниже.

[underverse.su].t67587.torrent
Трекер: Зарегистрирован   [ 28.06.2016 11:11 ]  

Статус: T временная (by makkol at 02.07.2016 22:40)
Поблагодарили: пока никто не поблагодарил...
Тип торрента: публичный - доступные источники с открытых трекеров: 
Размер: 1,37 GB (занимает 0,31 DVDR, для записи нужно 1 болванка DVDR/RW)
 
 
Похожие темы
Форум Тема Автор Торрент Отв. Посл. сооб.
T Зарубежное кино [DVDRip, Low-Res HDRip, и т.д.] Сент-Амур: Удовольствия любви / Saint Amour (Бенуа Делепин, Гюстав Керверн) [2016 г., комедия, HDRip] Dub (iTunes) makkol
3 | 0

0 | 380

7

17.07.2016 10:48

T Зарубежное кино [HDDVDRip / BDRip / WEB-DL / HDTV 1080/720р] Сент-Амур: Удовольствия любви / Saint Amour (Бенуа Делепин, Гюстав Керверн) [2016 г., комедия, WEB-DL 720p] Dub (Line) makkol
0 | 0

0 | 418

5

28.06.2016 11:19

T Зарубежное кино [HDDVDRip / BDRip / WEB-DL / HDTV 1080/720р] Сент-Амур: Удовольствия любви / Saint Amour (Бенуа Делепин, Гюстав Керверн) [2016 г., комедия, WEB-DL 1080p] Dub (Line) makkol
3 | 0

0 | 443

10

28.06.2016 11:24

T Зарубежное кино [HDDVDRip / BDRip / WEB-DL / HDTV 1080/720р] Сент-Амур: Удовольствия любви / Saint Amour (Бенуа Делепин, Гюстав Керверн) [2016 г., комедия, BDRip 720p] Dub (iTunes) + Original makkol
1 | 0

0 | 330

5

17.07.2016 10:56

T Зарубежное кино [HDDVDRip / BDRip / WEB-DL / HDTV 1080/720р] Сент-Амур: Удовольствия любви / Saint Amour (Бенуа Делепин, Гюстав Керверн) [2016 г., комедия, BDRip 1080p] Dub (iTunes) + Original makkol
2 | 0

0 | 362

2

17.07.2016 11:01


Яндекс.Метрика powered by Sphinx


В Н И М А Н И Е
Сайт не распространяет и не хранит электронные версии произведений, а лишь бесплатно и без коммерческой выгоды (не требуя взамен платы,
SMS и т.д.) предоставляет доступ к создаваемому пользователями каталогу ссылок на торрент-файлы, которые содержат только списки хеш-сумм.
Убедительная просьба с жалобами обращаться напрямую к пользователю, разместившему торрент файл.

Вверх