Loading...
Error

Май 1945-го (1-7 серии из 7) / (Нона Сисакян) [2015 г., документальный, военный, история, WEB-DL 720p]

Статистика раздачи
Размер:  776 MB   |    Зарегистрирован:  5 месяцев 10 дней   |    Скачан:  1 раз

Полного источника не было: 5 месяцев 3 дня

Сидов:  0  |  0 KB/s  ]   Личеров:  0  |  0 KB/s  ]

* - сиды/пиры с внешних источников

   
 
Автор Сообщение

ARI71 Пол:Муж

27-Июн-2016 20:45

Май 1945-го (1-7 серии из 7)


Год выпуска: 2015
Жанр: документальный, военный, история
Страна: Россия Wargaming
Режиссер: Нона Сисакян
Сюжет фильма:
«Май 1945-го» — цикл сюжетов от Wargaming. Семь дней войны между падением Берлина и освобождением Праги.Варварски разрушенный город, недоверие местных жителей и дети, которых кормила солдатская кухня, — таким остался Дрезден 8 мая 1945 года в воспоминаниях Марии Михайловны Рохлиной, кавалера Ордена Отечественной войны I степени.
Качество видео: WEB-DL 720p

Продолжительность: 7 x ~ 00:08:00
Формат: MKV
Видео: AVC (x264), 1280x720, ~1800 kbps
Аудио: русский, (оригинал), AC3 2.0, ~224.00 kbps
(тех. данные всех серий идентичны)
Серия 1. Рывок к Праге
Серия 2. Сокровища Дрездена
Серия 3. Сражение за Оломоуц
Серия 4. Капитуляция Бреслау
Серия 5. Сдача Свинемюнде
Серия 6. Высадка под Волином
Серия 7. Освобождение Цешина

Код:

Общее
Уникальный идентификатор : 286226054685773912513062855814055961823 (0xD75522098E5EDCB64CD8AC909B43A4DF)
Полное имя : D:\Май 1945-го.2015.WEB-DL720p.GeneralFilm\Май 1945-го.01.Рывок к Праге.2015.WEB-DL720p.GeneralFilm.mkv
Формат : Matroska
Версия формата : Version 4 / Version 2
Размер файла : 106 Мбайт
Продолжительность : 7 м. 19 с.
Общий поток : 2021 Кбит/сек
Программа кодирования : Lavf56.36.100
Библиотека кодирования : Lavf56.36.100 / Lavf56.36.100

Видео
Идентификатор : 1
Формат : AVC
Формат/Информация : Advanced Video Codec
Профиль формата : High@L3.1
Параметр CABAC формата : Да
Параметр ReFrames формата : 3 кадра
Идентификатор кодека : V_MPEG4/ISO/AVC
Продолжительность : 7 м. 19 с.
Битрейт : 1800 Кбит/сек
Ширина : 1280 пикселей
Высота : 720 пикселей
Соотношение сторон : 16:9
Режим частоты кадров : Постоянный
Частота кадров : 25,000 кадров/сек
Цветовое пространство : YUV
Субдискретизация насыщенности : 4:2:0
Битовая глубина : 8 бит
Тип развёртки : Прогрессивная
Бит/(Пиксели*Кадры) : 0.078
Размер потока : 92,1 Мбайт (87%)
Библиотека кодирования : x264 core 142 r2389 956c8d8
Настройки программы : cabac=1 / ref=3 / deblock=1:0:0 / analyse=0x3:0x133 / me=umh / subme=7 / psy=1 / psy_rd=1.00:0.00 / mixed_ref=1 / me_range=32 / chroma_me=1 / trellis=2 / 8x8dct=1 / cqm=0 / deadzone=21,11 / fast_pskip=1 / chroma_qp_offset=-2 / threads=12 / lookahead_threads=2 / sliced_threads=0 / nr=0 / decimate=1 / interlaced=0 / bluray_compat=0 / constrained_intra=0 / bframes=0 / weightp=0 / keyint=75 / keyint_min=26 / scenecut=40 / intra_refresh=0 / rc_lookahead=50 / rc=2pass / mbtree=0 / bitrate=1800 / ratetol=1.0 / qcomp=0.20 / qpmin=10 / qpmax=51 / qpstep=4 / cplxblur=20.0 / qblur=0.5 / vbv_maxrate=2000 / vbv_bufsize=2000 / nal_hrd=none / filler=0 / ip_ratio=1.40 / aq=1:1.00
Default : Да
Forced : Нет
Цветовой диапазон : Limited
Основные цвета : BT.709
Характеристики трансфера : BT.709
Коэффициенты матрицы : BT.709

Аудио
Идентификатор : 2
Формат : AC-3
Формат/Информация : Audio Coding 3
Расширение режима : CM (complete main)
Параметр Endianness формата : Big
Идентификатор кодека : A_AC3
Продолжительность : 7 м. 19 с.
Вид битрейта : Постоянный
Битрейт : 224 Кбит/сек
Каналы : 2 канала
Расположение каналов : Front: L R
Частота : 44,1 КГц
Частота кадров : 28,711 кадров/сек (1536 spf)
Метод сжатия : С потерями
Размер потока : 11,7 Мбайт (11%)
Default : Да
Forced : Нет
picpicpicpicpic
Для увеличения картинки щелкните мышкой по превью

Этот торрент недоступен для скачивания без регистрации, однако доступен по публичной magnet-ссылке (источники с публичных трекеров). Перед использованием ссылки прочтите, пожалуйста Пользовательское соглашение, а также как можно дольше оставайтесь на раздаче! Для того, чтобы скачать сам торрент-файл (который видит больше источников), а также для того, чтобы поблагодарить релизера, вам необходимо зарегистрироваться. Если регистрироваться лень - вы можете также попробовать скачать релиз по нашим партнерским ссылкам ниже.

[underverse.su].t67572.torrent
Трекер: Зарегистрирован   [ 27.06.2016 20:45 ]  

Статус: проверено (by makkol at 27.06.2016 21:43)
Поблагодарили: пока никто не поблагодарил...
Тип торрента: публичный - доступные источники с открытых трекеров: 
Размер: 776 MB (занимает 0,17 DVDR, для записи нужно 1 болванка DVDR/RW)
 
 
Похожие темы
Форум Тема Автор Торрент Отв. Посл. сооб.
Военные хроники Май 1945-го (1-7 серии из 7) / (Нона Сисакян) [2015 г., документальный, военный, история, WEB-DLRip] ARI71
7 | 0

0 | 660

0

27.06.2016 19:47

Военные хроники Май 1945-го (1-7 серии из 7) / (Нона Сисакян) [2015 г., документальный, военный, история, WEB-DL 1080p] ARI71
5 | 0

0 | 642

4

28.06.2016 16:42


Яндекс.Метрика powered by Sphinx


В Н И М А Н И Е
Сайт не распространяет и не хранит электронные версии произведений, а лишь бесплатно и без коммерческой выгоды (не требуя взамен платы,
SMS и т.д.) предоставляет доступ к создаваемому пользователями каталогу ссылок на торрент-файлы, которые содержат только списки хеш-сумм.
Убедительная просьба с жалобами обращаться напрямую к пользователю, разместившему торрент файл.

Вверх