Loading...
Error

Май 1945-го (1-7 серии из 7) / (Нона Сисакян) [2015 г., документальный, военный, история, WEB-DLRip]

Статистика раздачи
Размер:  686 MB   |    Зарегистрирован:  5 месяцев 9 дней   |    Скачан:  0 раз

Полного источника не было: 5 месяцев 9 дней

Сидов:  0  |  0 KB/s  ]   Личеров:  0  |  0 KB/s  ]

* - сиды/пиры с внешних источников

   
 
Автор Сообщение

ARI71 Пол:Муж

27-Июн-2016 19:47

Май 1945-го (1-7 серии из 7)


Год выпуска: 2015
Жанр: документальный, военный, история
Страна: Россия Wargaming
Режиссер: Нона Сисакян
Сюжет фильма:
«Май 1945-го» — цикл сюжетов от Wargaming. Семь дней войны между падением Берлина и освобождением Праги. Варварски разрушенный город, недоверие местных жителей и дети, которых кормила солдатская кухня, — таким остался Дрезден 8 мая 1945 года в воспоминаниях Марии Михайловны Рохлиной, кавалера Ордена Отечественной войны I степени.
Качество видео: WEB-DLRip

Продолжительность: 7 x ~ 00:08:00
Формат: AVI
Видео: XviD, 720x400, ~1584 kbps
Аудио: русский, (оригинал), AC3 2.0, ~192.00 kbps
(тех. данные всех серий идентичны)
Серия 1. Рывок к Праге
Серия 2. Сокровища Дрездена
Серия 3. Сражение за Оломоуц
Серия 4. Капитуляция Бреслау
Серия 5. Сдача Свинемюнде
Серия 6. Высадка под Волином
Серия 7. Освобождение Цешина

Код:

Общее
Полное имя : D:\Май 1945-го.2015.WEB-DLRip.GeneralFilm\Май 1945-го.01.Рывок к Праге.2015.WEB-DLRip.GeneralFilm.avi
Формат : AVI
Формат/Информация : Audio Video Interleave
Размер файла : 93,7 Мбайт
Продолжительность : 7 м. 19 с.
Общий поток : 1786 Кбит/сек
Программа кодирования : VirtualDubMod 1.5.10.3 | www.virtualdub-fr.org || (build 2550/release)
Библиотека кодирования : VirtualDubMod build 2550/release

Видео
Идентификатор : 0
Формат : MPEG-4 Visual
Профиль формата : Advanced Simple@L5
Параметр BVOP формата : 1
Параметр QPel формата : Нет
Параметр GMC формата : Без точки перехода
Параметр матрицы формата : Выборочная
Идентификатор кодека : XVID
Идентификатор кодека/Подсказка : XviD
Продолжительность : 7 м. 19 с.
Битрейт : 1584 Кбит/сек
Ширина : 720 пикселей
Высота : 400 пикселей
Соотношение сторон : 16:9
Частота кадров : 25,000 кадров/сек
Цветовое пространство : YUV
Субдискретизация насыщенности : 4:2:0
Битовая глубина : 8 бит
Тип развёртки : Прогрессивная
Метод сжатия : С потерями
Бит/(Пиксели*Кадры) : 0.220
Размер потока : 83,1 Мбайт (89%)
Библиотека кодирования : XviD 73

Аудио
Идентификатор : 1
Формат : AC-3
Формат/Информация : Audio Coding 3
Расширение режима : CM (complete main)
Параметр Endianness формата : Big
Идентификатор кодека : 2000
Продолжительность : 7 м. 19 с.
Вид битрейта : Постоянный
Битрейт : 192 Кбит/сек
Каналы : 2 канала
Расположение каналов : Front: L R
Частота : 48,0 КГц
Частота кадров : 31,250 кадров/сек (1536 spf)
Метод сжатия : С потерями
Размер потока : 10,1 Мбайт (11%)
Выравнивание : Разделение по промежуткам
Продолжительность промежутка : 40 мс. (1,00 видеокадр)
Время предзагрузки промежутка : 500 мс.
picpicpicpicpic
Для увеличения картинки щелкните мышкой по превью

Этот торрент недоступен для скачивания без регистрации, однако доступен по публичной magnet-ссылке (источники с публичных трекеров). Перед использованием ссылки прочтите, пожалуйста Пользовательское соглашение, а также как можно дольше оставайтесь на раздаче! Для того, чтобы скачать сам торрент-файл (который видит больше источников), а также для того, чтобы поблагодарить релизера, вам необходимо зарегистрироваться. Если регистрироваться лень - вы можете также попробовать скачать релиз по нашим партнерским ссылкам ниже.

[underverse.su].t67570.torrent
Трекер: Зарегистрирован   [ 27.06.2016 19:47 ]  

Статус: проверено (by makkol at 27.06.2016 21:42)
Поблагодарили: пока никто не поблагодарил...
Тип торрента: публичный - доступные источники с открытых трекеров: 
Размер: 686 MB (занимает 0,15 DVDR, для записи нужно 1 болванка DVDR/RW)
 
 
Похожие темы
Форум Тема Автор Торрент Отв. Посл. сооб.
Военные хроники Май 1945-го (1-7 серии из 7) / (Нона Сисакян) [2015 г., документальный, военный, история, WEB-DL 720p] ARI71
5 | 1

0 | 701

1

27.06.2016 20:45

Военные хроники Май 1945-го (1-7 серии из 7) / (Нона Сисакян) [2015 г., документальный, военный, история, WEB-DL 1080p] ARI71
5 | 0

0 | 642

4

28.06.2016 16:42


Яндекс.Метрика powered by Sphinx


В Н И М А Н И Е
Сайт не распространяет и не хранит электронные версии произведений, а лишь бесплатно и без коммерческой выгоды (не требуя взамен платы,
SMS и т.д.) предоставляет доступ к создаваемому пользователями каталогу ссылок на торрент-файлы, которые содержат только списки хеш-сумм.
Убедительная просьба с жалобами обращаться напрямую к пользователю, разместившему торрент файл.

Вверх