Loading...
Error

Рыбачьте с нами. Видеоприложение. Выпуск №2. Февраль (Алексей Фадеев) [2016 г., документальный, рыбалка, DVDRip]

Статистика раздачи
Размер:  730 MB   |    Зарегистрирован:  5 месяцев 11 дней   |    Скачан:  4 раза

Полного источника не было: 14 дней

Сидов:  0  |  0 KB/s  ]   Личеров:  0  |  0 KB/s  ]

* - сиды/пиры с внешних источников

   
 
Автор Сообщение

ARI71 Пол:Муж

27-Июн-2016 14:17

Рыбачьте с нами. Видеоприложение. Выпуск №2. Февраль


Год выпуска: 2016
Жанр: документальный, рыбалка
Страна: Россия Фиш-Информ
Режиссер: Алексей Фадеев
В ролях: Алексей Шанин, Артём Мишин, Андрей Питерцов, Алексей Вьюнов, Владимир Виноградов
Сюжет фильма:
1. Зимой со спиннингом на лиманах. Часть 2. Алексей Шанин
2. Отводной поводок. Зимняя ловля. Часть 2. Артем Мишин, Андрей Питерцов
3. С воблером на зимней реке. Артем Мишин
4. Воблеры класса Vibration. Pontoon21 Bet-A-Vib, Kalikana Vib. Алексей Вьюнов
5. Магнитный держатель для приманок.
6. Универсальный рыболовный ящик «Спутник». Владимир Виноградов

Качество видео: DVDRip

Продолжительность: 00:51:31
Формат: AVI
Видео: XviD, 720x400, ~1799 kbps
Аудио: русский, (оригинал), MP3 2.0, ~192.00 kbps
(тех. данные всех выпусков идентичны)

Код:

Общее
Полное имя : D:\Рыбачьте с нами N2-2016 DVD\1. Зимой со спиннингом на лиманах-2.avi
Формат : AVI
Формат/Информация : Audio Video Interleave
Размер файла : 217 Мбайт
Продолжительность : 15 м.
Общий поток : 2004 Кбит/сек
Программа кодирования : Lavf56.1.100

Видео
Идентификатор : 0
Формат : MPEG-4 Visual
Профиль формата : Simple@L1
Параметр BVOP формата : Нет
Параметр QPel формата : Нет
Параметр GMC формата : Без точки перехода
Параметр матрицы формата : Default (H.263)
Идентификатор кодека : XVID
Идентификатор кодека/Подсказка : XviD
Продолжительность : 15 м.
Битрейт : 1799 Кбит/сек
Ширина : 720 пикселей
Высота : 400 пикселей
Соотношение сторон : 16:9
Частота кадров : 25,000 кадров/сек
Цветовое пространство : YUV
Субдискретизация насыщенности : 4:2:0
Битовая глубина : 8 бит
Тип развёртки : Прогрессивная
Метод сжатия : С потерями
Бит/(Пиксели*Кадры) : 0.250
Размер потока : 195 Мбайт (90%)
Библиотека кодирования : Lavc56.0.101

Аудио
Идентификатор : 1
Формат : MPEG Audio
Версия формата : Version 1
Профиль формата : Layer 3
Режим : Joint stereo
Расширение режима : MS Stereo
Идентификатор кодека : 55
Идентификатор кодека/Подсказка : MP3
Продолжительность : 15 м.
Вид битрейта : Постоянный
Битрейт : 192 Кбит/сек
Каналы : 2 канала
Частота : 44,1 КГц
Метод сжатия : С потерями
Размер потока : 20,8 Мбайт (10%)
Выравнивание : Соединение по промежуткам
Продолжительность промежутка : 26 мс. (0,65 видеокадр)
Время предзагрузки промежутка : 26 мс.
picpicpicpicpic
Для увеличения картинки щелкните мышкой по превью

Этот торрент недоступен для скачивания без регистрации, однако доступен по публичной magnet-ссылке (источники с публичных трекеров). Перед использованием ссылки прочтите, пожалуйста Пользовательское соглашение, а также как можно дольше оставайтесь на раздаче! Для того, чтобы скачать сам торрент-файл (который видит больше источников), а также для того, чтобы поблагодарить релизера, вам необходимо зарегистрироваться. Если регистрироваться лень - вы можете также попробовать скачать релиз по нашим партнерским ссылкам ниже.

[underverse.su].t67561.torrent
Трекер: Зарегистрирован   [ 27.06.2016 14:17 ]  

Статус: проверено (by makkol at 27.06.2016 15:25)
Поблагодарили: пока никто не поблагодарил...
Тип торрента: публичный - доступные источники с открытых трекеров: 
Размер: 730 MB (занимает 0,16 DVDR, для записи нужно 1 болванка DVDR/RW)
 
 
Похожие темы
Форум Тема Автор Торрент Отв. Посл. сооб.
Рыбалка Рыбачьте с нами. выпуск 17 [Январь 2011 г., видеожурнал, рыбалка , DVDRip] МУХА~
0 | 0

0 | 2581

16

20.01.2011 16:13

Рыбалка Рыбачьте с нами. выпуск 18 [Февраль 2011 г., Рыбалка. Документальный., DVDRip] МУХА~
0 | 0

1 | 1605

10

07.04.2011 17:50

Рыбалка Рыбачьте с нами. Выпуск №19. [Март 2011 г., Рыбалка. Документальный., DVDRip] МУХА~
0 | 0

0 | 2037

7

07.03.2011 13:32

Рыбалка Рыбачьте с нами. Выпуск №20. [Апрель 2011 г., Рыбалка. Документальный., DVDRip] МУХА~
0 | 0

1 | 1110

9

26.04.2011 23:20

Рыбалка Рыбачьте с нами. Выпуск №21. [Май 2011 г., Рыбалка. Документальный., DVDRip] МУХА~
0 | 0

0 | 1945

11

14.05.2011 10:08

Рыбалка Рыбачьте с нами. Выпуск №22. [Июнь 2011 г., Рыбалка. Документальный., DVDRip] МУХА~
0 | 0

0 | 1323

10

05.06.2011 09:51

Рыбалка Рыбачьте с нами. Выпуск №27. [Ноябрь 2011 г., Рыбалка. Документальный., DVDRip] МУХА~
0 | 0

0 | 1792

11

28.10.2011 10:43

Рыбалка Рыбачьте с нами. Выпуск №28 [Декабрь 2011 г., Рыбалка. Документальный., DVDRip] МУХА~
0 | 0

1 | 1255

7

29.11.2011 16:51

Рыбалка Рыбачьте с нами. Выпуск №29 [Январь 2012 г., Рыбалка. Документальный., DVDRip] МУХА~
2 | 0

0 | 993

9

05.01.2012 11:35

Рыбалка Рыбачьте с нами. Выпуск №30 [Февраль 2012 г., Рыбалка. Документальный., DVDRip] МУХА~
0 | 0

0 | 1917

11

03.02.2012 19:26


Яндекс.Метрика powered by Sphinx


В Н И М А Н И Е
Сайт не распространяет и не хранит электронные версии произведений, а лишь бесплатно и без коммерческой выгоды (не требуя взамен платы,
SMS и т.д.) предоставляет доступ к создаваемому пользователями каталогу ссылок на торрент-файлы, которые содержат только списки хеш-сумм.
Убедительная просьба с жалобами обращаться напрямую к пользователю, разместившему торрент файл.

Вверх