Loading...
Error

Тайны века. Генрих Мюллер. Последнее мгновение весны (Екатерина Толдонова) [2006 г., документальный, история, SatRip]

Статистика раздачи
Размер:  717 MB   |    Зарегистрирован:  5 месяцев 13 дней   |    Скачан:  3 раза

Полного источника не было: 3 месяца 4 дня

Сидов:  0  |  0 KB/s  ]   Личеров:  0  |  0 KB/s  ]

* - сиды/пиры с внешних источников

   
 
Автор Сообщение

ARI71 Пол:Муж

27-Июн-2016 10:29

Тайны века. Генрих Мюллер. Последнее мгновение весны


Год выпуска: 2006
Жанр: документальный, история
Страна: Россия Фонд социально-культурных программ «Губерния»
Режиссер: Екатерина Толдонова
Сюжет фильма:
Шеф полиции Третьего Рейха Генрих Мюллер скрывался в Латинской Америке. Долгие послевоенные десятилетия он жил в чилийской деревушке, у него была небольшая ферма, жена и две дочери... На Нюрнбергском процессе были осуждены высшие военные и государственные деятели Третьего Рейха, однако одного из главных нацистских преступников, шефа гестапо Генриха Мюллера на скамье подсудимых не было. Он не был осужден даже заочно, его дело вообще не рассматривалось... Авторы фильма пытаются разобраться в таинственном исчезновении одного из самых главных нацистских преступников - шефа гестапо Генриха Мюллера, который, предвидя поражение Третьего рейха, тщательно продумал и срежиссировал его. Мюллер позаботился обо всем, даже о самых мелких деталях. Свидетельства о его жизни и возможных вариантах гибели настолько противоречивы, что разобраться в них пока не по силам никому. Точку в этом деле могли бы поставить архивные материалы, которые в разных странах вот уже долгие годы хранятся под грифом «Совершенно секретно».
Качество видео: SatRip

Продолжительность: 00:51:43
Формат: AVI
Видео: XviD, 704x528, ~1800 kbps
Аудио: русский, (оригинал), MP2 2.0, ~128.00 kbps

Код:

Общее
Полное имя : D:\Генрих.Мюллер.Последнее.мгновение.весны.2006.SATRip.alf62.avi
Формат : AVI
Формат/Информация : Audio Video Interleave
Размер файла : 717 Мбайт
Продолжительность : 51 м.
Общий поток : 1938 Кбит/сек
Программа кодирования : VirtualDubMod 1.5.10.3 | www.virtualdub-fr.org || (build 2550/release)
Библиотека кодирования : VirtualDubMod build 2550/release

Видео
Идентификатор : 0
Формат : MPEG-4 Visual
Профиль формата : Advanced Simple@L5
Параметр BVOP формата : 2
Параметр QPel формата : Нет
Параметр GMC формата : Без точки перехода
Параметр матрицы формата : Default (MPEG)
Идентификатор кодека : XVID
Идентификатор кодека/Подсказка : XviD
Продолжительность : 51 м.
Битрейт : 1800 Кбит/сек
Ширина : 704 пикселя
Высота : 528 пикселей
Соотношение сторон : 4:3
Частота кадров : 25,000 кадров/сек
Цветовое пространство : YUV
Субдискретизация насыщенности : 4:2:0
Битовая глубина : 8 бит
Тип развёртки : Прогрессивная
Метод сжатия : С потерями
Бит/(Пиксели*Кадры) : 0.194
Размер потока : 666 Мбайт (93%)
Библиотека кодирования : XviD 73

Аудио
Идентификатор : 1
Формат : MPEG Audio
Версия формата : Version 1
Профиль формата : Layer 2
Идентификатор кодека : 50
Продолжительность : 51 м.
Вид битрейта : Постоянный
Битрейт : 128 Кбит/сек
Каналы : 2 канала
Частота : 48,0 КГц
Метод сжатия : С потерями
Размер потока : 47,3 Мбайт (7%)
Выравнивание : Соединение по промежуткам
Продолжительность промежутка : 40 мс. (1,00 видеокадр)
Время предзагрузки промежутка : 504 мс.
picpicpicpicpic
Для увеличения картинки щелкните мышкой по превью

Этот торрент недоступен для скачивания без регистрации, однако доступен по публичной magnet-ссылке (источники с публичных трекеров). Перед использованием ссылки прочтите, пожалуйста Пользовательское соглашение, а также как можно дольше оставайтесь на раздаче! Для того, чтобы скачать сам торрент-файл (который видит больше источников), а также для того, чтобы поблагодарить релизера, вам необходимо зарегистрироваться. Если регистрироваться лень - вы можете также попробовать скачать релиз по нашим партнерским ссылкам ниже.

[underverse.su].t67550.torrent
Трекер: Зарегистрирован   [ 27.06.2016 10:29 ]  

Статус: проверено (by makkol at 27.06.2016 11:06)
Поблагодарили: пока никто не поблагодарил...
Тип торрента: публичный - доступные источники с открытых трекеров: 
Размер: 717 MB (занимает 0,16 DVDR, для записи нужно 1 болванка DVDR/RW)
 
 

Яндекс.Метрика powered by Sphinx


В Н И М А Н И Е
Сайт не распространяет и не хранит электронные версии произведений, а лишь бесплатно и без коммерческой выгоды (не требуя взамен платы,
SMS и т.д.) предоставляет доступ к создаваемому пользователями каталогу ссылок на торрент-файлы, которые содержат только списки хеш-сумм.
Убедительная просьба с жалобами обращаться напрямую к пользователю, разместившему торрент файл.

Вверх