Loading...
Error

Телескоп / Telescope (Натанил Кан) [2016 г., документальный, наука, астрономия, HDTVRip 720p] DVO

Статистика раздачи
Размер:  1,29 GB   |    Зарегистрирован:  5 месяцев 11 дней   |    Скачан:  4 раза

Полного источника не было: 3 часа

Сидов:  0  |  0 KB/s  ]   Личеров:  0  |  0 KB/s  ]

* - сиды/пиры с внешних источников

   
 
Автор Сообщение

ARI71 Пол:Муж

27-Июн-2016 09:38

Телескоп / Telescope


Год выпуска: 2016
Жанр: документальный, наука, астрономия
Страна: США Discovery Communications, LLC.
Режиссер: Натанил Кан
Сюжет фильма:
Ещё со времён рассвета цивилизации люди задавались вопросами о том, как зародилась Вселенная, откуда мы появились и одни ли мы во Вселенной. На протяжении столетий мы создавали всё более точные инструменты, пытаясь приблизиться к разгадке. Этот документальный фильм расскажет нам историю изобретения телескопа: от Галилео, Ньютона и "Хаббла" до Космического телескопа имени Джеймса Уэбба. Мы постоянно стремимся понять, какое место отведено нам среди звёзд, и благодаря этому уникальному фильму мы узнаем, даст ли Космический телескоп имени Джеймса Уэбба желанные ответы.
Качество видео: HDTVRip 720p

Продолжительность: 00:44:00
Формат: MKV
Видео: V_MPEG4/ISO/AVC, 1280x720, ~4000 kbps
Аудио: русский, двухголосый (профессиональный), MP2 2.0, ~192.00 kbps

Код:

Общее
Уникальный идентификатор : 132285490534608134047703624351562211633 (0x6385423CF8C6E697A3B83B57BD4A2131)
Полное имя : D:\Телескоп. HitWay.mkv
Формат : Matroska
Версия формата : Version 2
Размер файла : 1,29 Гбайт
Продолжительность : 44 м.
Режим общего битрейта : Постоянный
Общий поток : 4196 Кбит/сек
Программа кодирования : Lavf54.63.104
Библиотека кодирования : Lavf54.63.104 / Lavf54.63.104

Видео
Идентификатор : 1
Формат : AVC
Формат/Информация : Advanced Video Codec
Профиль формата : High@L4.1
Параметр CABAC формата : Да
Параметр ReFrames формата : 3 кадра
Параметр GOP формата : M=3, N=33
Идентификатор кодека : V_MPEG4/ISO/AVC
Продолжительность : 44 м.
Вид битрейта : Постоянный
Битрейт : 4000 Кбит/сек
Ширина : 1280 пикселей
Высота : 720 пикселей
Соотношение сторон : 16:9
Режим частоты кадров : Постоянный
Частота кадров : 30,000 кадров/сек
Стандарт вещания : NTSC
Цветовое пространство : YUV
Субдискретизация насыщенности : 4:2:0
Битовая глубина : 8 бит
Тип развёртки : Прогрессивная
Бит/(Пиксели*Кадры) : 0.145
Размер потока : 1,21 Гбайт (93%)
Default : Нет
Forced : Нет
Цветовой диапазон : Limited
Основные цвета : BT.709
Характеристики трансфера : BT.709
Коэффициенты матрицы : BT.709

Аудио
Идентификатор : 2
Формат : MPEG Audio
Версия формата : Version 1
Профиль формата : Layer 2
Идентификатор кодека : A_MPEG/L2
Идентификатор кодека/Подсказка : MP2
Продолжительность : 44 м.
Вид битрейта : Постоянный
Битрейт : 192 Кбит/сек
Каналы : 2 канала
Частота : 48,0 КГц
Метод сжатия : С потерями
Задержка видео : 13 мс.
Размер потока : 60,5 Мбайт (5%)
Язык : English
Default : Да
Forced : Нет
picpicpicpicpic
Для увеличения картинки щелкните мышкой по превью

Этот торрент недоступен для скачивания без регистрации, однако доступен по публичной magnet-ссылке (источники с публичных трекеров). Перед использованием ссылки прочтите, пожалуйста Пользовательское соглашение, а также как можно дольше оставайтесь на раздаче! Для того, чтобы скачать сам торрент-файл (который видит больше источников), а также для того, чтобы поблагодарить релизера, вам необходимо зарегистрироваться. Если регистрироваться лень - вы можете также попробовать скачать релиз по нашим партнерским ссылкам ниже.

[underverse.su].t67548.torrent
Трекер: Зарегистрирован   [ 27.06.2016 09:38 ]  

Статус: проверено (by makkol at 27.06.2016 10:19)
Поблагодарили: 1 человек
Тип торрента: публичный - доступные источники с открытых трекеров: 
Размер: 1,29 GB (занимает 0,29 DVDR, для записи нужно 1 болванка DVDR/RW)
 
 
Похожие темы
Форум Тема Автор Торрент Отв. Посл. сооб.
Discovery Телескоп / Telescope (Натанил Кан) [2016 г., документальный, научно-популярный, космос, HDTV 1080i] Dub + Original (Eng) ARI71
7 | 0

0 | 577

1

27.06.2016 08:15

Discovery Телескоп / Telescope (Натанил Кан) [2016 г., документальный, научно-популярный, космос, HDTVRip] Dub + Original (Eng) ARI71
5 | 0

0 | 595

4

27.06.2016 08:52

makkol Пол:Муж

27-Июн-2016 10:22

А это раздачи одного и того же фильма? Почему здесь перевод двухголосый, а в двух других написано дубляж?

ARI71 Пол:Муж

27-Июн-2016 11:29

Так было указано в первоисточнике. Также этот релиз отличается тем, что в нём только одна аудиодорожка, у тех двух две аудиодорожки.

Яндекс.Метрика powered by Sphinx


В Н И М А Н И Е
Сайт не распространяет и не хранит электронные версии произведений, а лишь бесплатно и без коммерческой выгоды (не требуя взамен платы,
SMS и т.д.) предоставляет доступ к создаваемому пользователями каталогу ссылок на торрент-файлы, которые содержат только списки хеш-сумм.
Убедительная просьба с жалобами обращаться напрямую к пользователю, разместившему торрент файл.

Вверх