Loading...
Error

Телескоп / Telescope (Натанил Кан) [2016 г., документальный, научно-популярный, космос, HDTVRip] Dub + Original (Eng)

Статистика раздачи
Размер:  745 MB   |    Зарегистрирован:  5 месяцев 13 дней   |    Скачан:  4 раза

Полного источника не было: 1 месяц 19 дней

Сидов:  0  |  0 KB/s  ]   Личеров:  0  |  0 KB/s  ]

* - сиды/пиры с внешних источников

   
 
Автор Сообщение

ARI71 Пол:Муж

27-Июн-2016 08:52

Телескоп / Telescope


Год выпуска: 2016
Жанр: документальный, научно-популярный, космос
Страна: США Radical Media In Association Crazy Boat Pictures & Discovery Channel
Перевод: русский, (дублированный)
Режиссер: Натанил Кан
Сюжет фильма:
Специалисты Центра космических полетов НАСА имени Годдарда установили половину зеркал главного зеркала орбитального телескопа "Джеймс Уэбб", наследника и замены для "Хаббла", сообщает пресс-служба космического агентства."Два года планирования и тренировок наконец-то начали оправдывать себя – теперь мы можем с большим удовлетворением наблюдать за тем, как быстро идет сборка телескопа", — заявил Ли Файнберг (Lee Feinberg), руководитель команды, отвечающей за сборку оптической части "Джеймса Уэбба". Сегодня, как сообщает НАСА, инженеры Центра космических полетов НАСА имени Годдарда завершили установку девятого зеркала телескопа "Джеймс Уэбб", тем самым достигнув "экватора" в процессе сборки орбитальной обсерватории – половина "сот" главного зеркала телескопа, состоящего из 18 сегментов, была успешно установлена на свое место. В конструкцию "Джеймса Уэбба" входят огромное зеркало диаметром 6,5 метра (диаметр зеркала Хаббла – 2,4 метра) и солнцезащитный щит размером с теннисный корт. Зеркало и щит из-за своих габаритов будут доставлены на ракету-носитель в сложенном виде, а затем раскроются после вывода телескопа в открытый космос. Из-за больших размеров телескопа в космос его будет выводить крупнейшая ракета-носитель Европы – Ariane V.
Качество видео: HDTVRip

Продолжительность: 00:44:03
Формат: AVI
Видео: 720x400 (1.80:1), 25 fps, XviD build 73 ~1581 kbps avg, 0.220 bit/pixel
Аудио #1: Русский 48 kHz, АС3, 6 ch, ~384.00 kbps avg
Аудио #2: Английский 48 kHz, АС3, 6 ch, ~384.00 kbps avg

Код:

Общее
Полное имя : D:\Teleskop.2016.HDTVRip.GeneralFilm.avi
Формат : AVI
Формат/Информация : Audio Video Interleave
Размер файла : 745 Мбайт
Продолжительность : 44 м.
Общий поток : 2364 Кбит/сек
Программа кодирования : VirtualDubMod 1.5.10.3 | www.virtualdub-fr.org || (build 2550/release)
Библиотека кодирования : VirtualDubMod build 2550/release

Видео
Идентификатор : 0
Формат : MPEG-4 Visual
Профиль формата : Advanced Simple@L5
Параметр BVOP формата : 1
Параметр QPel формата : Нет
Параметр GMC формата : Без точки перехода
Параметр матрицы формата : Выборочная
Идентификатор кодека : XVID
Идентификатор кодека/Подсказка : XviD
Продолжительность : 44 м.
Битрейт : 1581 Кбит/сек
Ширина : 720 пикселей
Высота : 400 пикселей
Соотношение сторон : 16:9
Частота кадров : 25,000 кадров/сек
Цветовое пространство : YUV
Субдискретизация насыщенности : 4:2:0
Битовая глубина : 8 бит
Тип развёртки : Прогрессивная
Метод сжатия : С потерями
Бит/(Пиксели*Кадры) : 0.220
Размер потока : 498 Мбайт (67%)
Библиотека кодирования : XviD 73

Аудио #1
Идентификатор : 1
Формат : AC-3
Формат/Информация : Audio Coding 3
Расширение режима : CM (complete main)
Параметр Endianness формата : Big
Идентификатор кодека : 2000
Продолжительность : 44 м.
Вид битрейта : Постоянный
Битрейт : 384 Кбит/сек
Каналы : 6 каналов
Расположение каналов : Front: L C R, Side: L R, LFE
Частота : 48,0 КГц
Частота кадров : 31,250 кадров/сек (1536 spf)
Метод сжатия : С потерями
Задержка видео : 16 мс.
Размер потока : 121 Мбайт (16%)
Выравнивание : Разделение по промежуткам
Продолжительность промежутка : 40 мс. (1,00 видеокадр)
Время предзагрузки промежутка : 500 мс.

Аудио #2
Идентификатор : 2
Формат : AC-3
Формат/Информация : Audio Coding 3
Расширение режима : CM (complete main)
Параметр Endianness формата : Big
Идентификатор кодека : 2000
Продолжительность : 44 м.
Вид битрейта : Постоянный
Битрейт : 384 Кбит/сек
Каналы : 6 каналов
Расположение каналов : Front: L C R, Side: L R, LFE
Частота : 48,0 КГц
Частота кадров : 31,250 кадров/сек (1536 spf)
Метод сжатия : С потерями
Размер потока : 121 Мбайт (16%)
Выравнивание : Разделение по промежуткам
Продолжительность промежутка : 40 мс. (1,00 видеокадр)
Время предзагрузки промежутка : 500 мс.
picpicpicpicpic
Для увеличения картинки щелкните мышкой по превью

Этот торрент недоступен для скачивания без регистрации, однако доступен по публичной magnet-ссылке (источники с публичных трекеров). Перед использованием ссылки прочтите, пожалуйста Пользовательское соглашение, а также как можно дольше оставайтесь на раздаче! Для того, чтобы скачать сам торрент-файл (который видит больше источников), а также для того, чтобы поблагодарить релизера, вам необходимо зарегистрироваться. Если регистрироваться лень - вы можете также попробовать скачать релиз по нашим партнерским ссылкам ниже.

[underverse.su].t67547.torrent
Трекер: Зарегистрирован   [ 27.06.2016 08:52 ]  

Статус: проверено (by makkol at 27.06.2016 10:16)
Поблагодарили: пока никто не поблагодарил...
Тип торрента: публичный - доступные источники с открытых трекеров: 
Размер: 745 MB (занимает 0,17 DVDR, для записи нужно 1 болванка DVDR/RW)
 
 
Похожие темы
Форум Тема Автор Торрент Отв. Посл. сооб.
Discovery Телескоп / Telescope (Натанил Кан) [2016 г., документальный, научно-популярный, космос, HDTV 1080i] Dub + Original (Eng) ARI71
7 | 0

0 | 578

1

27.06.2016 08:15

Discovery Телескоп / Telescope (Натанил Кан) [2016 г., документальный, наука, астрономия, HDTVRip 720p] DVO ARI71
7 | 1

2 | 587

4

27.06.2016 11:29


Яндекс.Метрика powered by Sphinx


В Н И М А Н И Е
Сайт не распространяет и не хранит электронные версии произведений, а лишь бесплатно и без коммерческой выгоды (не требуя взамен платы,
SMS и т.д.) предоставляет доступ к создаваемому пользователями каталогу ссылок на торрент-файлы, которые содержат только списки хеш-сумм.
Убедительная просьба с жалобами обращаться напрямую к пользователю, разместившему торрент файл.

Вверх