Loading...
Error

Телескоп / Telescope (Натанил Кан) [2016 г., документальный, научно-популярный, космос, HDTV 1080i] Dub + Original (Eng)

Статистика раздачи
Размер:  2,38 GB   |    Зарегистрирован:  5 месяцев 6 дней   |    Скачан:  1 раз

Полного источника не было: 5 месяцев 5 дней

Сидов:  0  |  0 KB/s  ]   Личеров:  0  |  0 KB/s  ]

* - сиды/пиры с внешних источников

   
 
Автор Сообщение

ARI71 Пол:Муж

27-Июн-2016 08:15

Телескоп / Telescope


Год выпуска: 2016
Жанр: документальный, научно-популярный, космос
Страна: США Radical Media In Association Crazy Boat Pictures & Discovery Channel
Перевод: русский, (дублированный)
Режиссер: Натанил Кан
Сюжет фильма:
Специалисты Центра космических полетов НАСА имени Годдарда установили половину зеркал главного зеркала орбитального телескопа "Джеймс Уэбб", наследника и замены для "Хаббла", сообщает пресс-служба космического агентства."Два года планирования и тренировок наконец-то начали оправдывать себя – теперь мы можем с большим удовлетворением наблюдать за тем, как быстро идет сборка телескопа", — заявил Ли Файнберг (Lee Feinberg), руководитель команды, отвечающей за сборку оптической части "Джеймса Уэбба". Сегодня, как сообщает НАСА, инженеры Центра космических полетов НАСА имени Годдарда завершили установку девятого зеркала телескопа "Джеймс Уэбб", тем самым достигнув "экватора" в процессе сборки орбитальной обсерватории – половина "сот" главного зеркала телескопа, состоящего из 18 сегментов, была успешно установлена на свое место. В конструкцию "Джеймса Уэбба" входят огромное зеркало диаметром 6,5 метра (диаметр зеркала Хаббла – 2,4 метра) и солнцезащитный щит размером с теннисный корт. Зеркало и щит из-за своих габаритов будут доставлены на ракету-носитель в сложенном виде, а затем раскроются после вывода телескопа в открытый космос. Из-за больших размеров телескопа в космос его будет выводить крупнейшая ракета-носитель Европы – Ariane V.
Качество видео: HDTV 1080i

Продолжительность: 00:44:03
Формат: MPEG-TS
Видео: AVC, 1920x1080 (16:9), 25 fps, (High@L4) ~6567 kbps avg, 0.127 bit/pixel
Аудио #1: Русский, 48 kHz, АС3, 6 ch, ~384.00 kbps avg
Аудио #2: Английский, 48 kHz, АС3, 6 ch, ~384.00 kbps avg

Код:

Общее
Идентификатор : 1 (0x1)
Полное имя : D:\Teleskop.2016.HDTV.1080i.GeneralFilm.ts
Формат : MPEG-TS
Размер файла : 2,38 Гбайт
Продолжительность : 44 м.
Режим общего битрейта : Переменный
Общий поток : 7724 Кбит/сек

Видео
Идентификатор : 325 (0x145)
Идентификатор меню : 12105 (0x2F49)
Формат : AVC
Формат/Информация : Advanced Video Codec
Профиль формата : High@L4
Параметр CABAC формата : Да
Параметр ReFrames формата : 4 кадра
Идентификатор кодека : 27
Продолжительность : 44 м.
Битрейт : 6567 Кбит/сек
Ширина : 1920 пикселей
Высота : 1080 пикселей
Соотношение сторон : 16:9
Частота кадров : 25,000 кадров/сек
Стандарт вещания : Component
Цветовое пространство : YUV
Субдискретизация насыщенности : 4:2:0
Битовая глубина : 8 бит
Тип развёртки : Чересстрочная
Метод сохранения типа развёртки : Раздельные поля
Порядок развёртки : Верхнее поле первое
Бит/(Пиксели*Кадры) : 0.127
Размер потока : 2,02 Гбайт (85%)
Цветовой диапазон : Limited
Основные цвета : BT.709
Характеристики трансфера : BT.709
Коэффициенты матрицы : BT.709

Аудио #1
Идентификатор : 405 (0x195)
Идентификатор меню : 12105 (0x2F49)
Формат : AC-3
Формат/Информация : Audio Coding 3
Расширение режима : CM (complete main)
Параметр Endianness формата : Big
Идентификатор кодека : 6
Продолжительность : 44 м.
Вид битрейта : Постоянный
Битрейт : 384 Кбит/сек
Каналы : 6 каналов
Расположение каналов : Front: L C R, Side: L R, LFE
Частота : 48,0 КГц
Частота кадров : 31,250 кадров/сек (1536 spf)
Метод сжатия : С потерями
Задержка видео : -80 мс.
Размер потока : 121 Мбайт (5%)
Язык : Russian

Аудио #2
Идентификатор : 406 (0x196)
Идентификатор меню : 12105 (0x2F49)
Формат : AC-3
Формат/Информация : Audio Coding 3
Расширение режима : CM (complete main)
Параметр Endianness формата : Big
Идентификатор кодека : 6
Продолжительность : 44 м.
Вид битрейта : Постоянный
Битрейт : 384 Кбит/сек
Каналы : 6 каналов
Расположение каналов : Front: L C R, Side: L R, LFE
Частота : 48,0 КГц
Частота кадров : 31,250 кадров/сек (1536 spf)
Метод сжатия : С потерями
Задержка видео : -80 мс.
Размер потока : 121 Мбайт (5%)
Язык : English
picpicpicpicpic
Для увеличения картинки щелкните мышкой по превью

Этот торрент недоступен для скачивания без регистрации, однако доступен по публичной magnet-ссылке (источники с публичных трекеров). Перед использованием ссылки прочтите, пожалуйста Пользовательское соглашение, а также как можно дольше оставайтесь на раздаче! Для того, чтобы скачать сам торрент-файл (который видит больше источников), а также для того, чтобы поблагодарить релизера, вам необходимо зарегистрироваться. Если регистрироваться лень - вы можете также попробовать скачать релиз по нашим партнерским ссылкам ниже.

[underverse.su].t67546.torrent
Трекер: Зарегистрирован   [ 27.06.2016 08:15 ]  

Статус: проверено (by makkol at 27.06.2016 10:14)
Поблагодарили: пока никто не поблагодарил...
Тип торрента: публичный - доступные источники с открытых трекеров: 
Размер: 2,38 GB (занимает 0,54 DVDR, для записи нужно 1 болванка DVDR/RW)
 
 
Похожие темы
Форум Тема Автор Торрент Отв. Посл. сооб.
Discovery Телескоп / Telescope (Натанил Кан) [2016 г., документальный, научно-популярный, космос, HDTVRip] Dub + Original (Eng) ARI71
5 | 0

0 | 591

4

27.06.2016 08:52

Discovery Телескоп / Telescope (Натанил Кан) [2016 г., документальный, наука, астрономия, HDTVRip 720p] DVO ARI71
7 | 1

2 | 579

4

27.06.2016 11:29


Яндекс.Метрика powered by Sphinx


В Н И М А Н И Е
Сайт не распространяет и не хранит электронные версии произведений, а лишь бесплатно и без коммерческой выгоды (не требуя взамен платы,
SMS и т.д.) предоставляет доступ к создаваемому пользователями каталогу ссылок на торрент-файлы, которые содержат только списки хеш-сумм.
Убедительная просьба с жалобами обращаться напрямую к пользователю, разместившему торрент файл.

Вверх