Loading...
Error

История Российской авиации. «Соколы» против «коршунов» (2 серии из 2) / (Анна Деникина) [2002 г., документальный, авиация, история, VHSRip]

Статистика раздачи
Размер:  413 MB   |    Зарегистрирован:  5 месяцев 9 дней   |    Скачан:  3 раза

Полного источника не было: 3 дня

Сидов:  0  |  0 KB/s  ]   Личеров:  0  |  0 KB/s  ]

* - сиды/пиры с внешних источников

   
 
Автор Сообщение

ARI71 Пол:Муж

27-Июн-2016 07:41

История Российской авиации. «Соколы» против «коршунов» (2 серии из 2)


Год выпуска: 2002
Жанр: документальный, авиация, история
Страна: Россия ООО «Содружество»
Режиссер: Анна Деникина
Сюжет фильма:
«Соколы» против «коршунов» состоит из двух фильмов: «"Ил-2. История жизни» и «Семейство Яков». История создания и боевого применения этих самолетов.
Качество видео: VHSRip

Продолжительность: 2х ~ 00:26:01
Формат: AVI
Видео: XviD, 640x480, ~944.00 kbps
Аудио: русский, (оригинал), MP3 2.0, ~192.00 kbps
(тех. данные обех серий идентичны)
1. Ил-2. История жизни
«Самым массовым самолетом советских ВВС времен Второй мировой войны стал штурмовик Ил-2. Этот бронированный самолет был создан накануне войны, но его конструктивно-технологическую схему так и не смогли воспроизвести ни в одной стране мира. Штурмовик показал (особенно его двухместная версия Ил-2М3) очень высокую эффективность боевого применения и живучесть».

2. Семейство «ЯКов»
«В 1943 году была предпринята попытка решительно улучшить лётно-технические данные истребителя Як-1 путём максимального облегчения конструкции машины и улучшения аэродинамики - так появился Як-3. Этот самолёт имел отличные ЛТХ, но его внедрение в серию по причине низкой надежности конструкции затянулось практически до конца войны. Только во второй половине 1944 года Як-3 стал ограниченно поступать в части, так до конца и не избавившись от своих недостатков». В фильме представлены все модификации «ЯКов», летавших во Вторую мировую войну: Як-1, Як-3, Як-9.

Код:

Общее
Полное имя : D:\Соколы.против.коршунов.(2.серии.из.2).2002.XviD.VHSRip.alf62\Соколы.против.коршунов.(1.серия.из.2).Ил-2.История.жизни.2002.XviD.VHSRip.alf62.avi
Формат : AVI
Формат/Информация : Audio Video Interleave
Размер файла : 213 Мбайт
Продолжительность : 26 м.
Общий поток : 1146 Кбит/сек
Программа кодирования : VirtualDubMod 1.5.10.3 | www.virtualdub-fr.org || (build 2550/release)
Библиотека кодирования : VirtualDubMod build 2550/release

Видео
Идентификатор : 0
Формат : MPEG-4 Visual
Профиль формата : Advanced Simple@L5
Параметр BVOP формата : 2
Параметр QPel формата : Нет
Параметр GMC формата : Без точки перехода
Параметр матрицы формата : Default (MPEG)
Идентификатор кодека : XVID
Идентификатор кодека/Подсказка : XviD
Продолжительность : 26 м.
Битрейт : 944 Кбит/сек
Ширина : 640 пикселей
Высота : 480 пикселей
Соотношение сторон : 4:3
Частота кадров : 25,000 кадров/сек
Цветовое пространство : YUV
Субдискретизация насыщенности : 4:2:0
Битовая глубина : 8 бит
Тип развёртки : Прогрессивная
Метод сжатия : С потерями
Бит/(Пиксели*Кадры) : 0.123
Размер потока : 176 Мбайт (82%)
Библиотека кодирования : XviD 73

Аудио
Идентификатор : 1
Формат : MPEG Audio
Версия формата : Version 1
Профиль формата : Layer 3
Идентификатор кодека : 55
Идентификатор кодека/Подсказка : MP3
Продолжительность : 26 м.
Вид битрейта : Постоянный
Битрейт : 192 Кбит/сек
Каналы : 2 канала
Частота : 44,1 КГц
Метод сжатия : С потерями
Размер потока : 35,7 Мбайт (17%)
Выравнивание : Разделение по промежуткам
Продолжительность промежутка : 40 мс. (1,00 видеокадр)
Время предзагрузки промежутка : 500 мс.
Библиотека кодирования : LAME3.99r
Настройки программы : -m s -V 4 -q 0 -lowpass 18.6 -b 192
picpicpicpic
Для увеличения картинки щелкните мышкой по превью

Этот торрент недоступен для скачивания без регистрации, однако доступен по публичной magnet-ссылке (источники с публичных трекеров). Перед использованием ссылки прочтите, пожалуйста Пользовательское соглашение, а также как можно дольше оставайтесь на раздаче! Для того, чтобы скачать сам торрент-файл (который видит больше источников), а также для того, чтобы поблагодарить релизера, вам необходимо зарегистрироваться. Если регистрироваться лень - вы можете также попробовать скачать релиз по нашим партнерским ссылкам ниже.

[underverse.su].t67545.torrent
Трекер: Зарегистрирован   [ 27.06.2016 07:41 ]  

Статус: проверено (by makkol at 27.06.2016 11:20)
Поблагодарили: пока никто не поблагодарил...
Тип торрента: публичный - доступные источники с открытых трекеров: 
Размер: 413 MB (занимает 0,09 DVDR, для записи нужно 1 болванка DVDR/RW)
 
 

Яндекс.Метрика powered by Sphinx


В Н И М А Н И Е
Сайт не распространяет и не хранит электронные версии произведений, а лишь бесплатно и без коммерческой выгоды (не требуя взамен платы,
SMS и т.д.) предоставляет доступ к создаваемому пользователями каталогу ссылок на торрент-файлы, которые содержат только списки хеш-сумм.
Убедительная просьба с жалобами обращаться напрямую к пользователю, разместившему торрент файл.

Вверх