Loading...
Error

Интервью без комментариев: Анатолий Собчак [2012 г., документальный, интервью, SatRip]

Статистика раздачи
Размер:  297 MB   |    Зарегистрирован:  5 месяцев 12 дней   |    Скачан:  0 раз

Полного источника не было: 4 месяца 23 дня

Сидов:  0  |  0 KB/s  ]   Личеров:  0  |  0 KB/s  ]

* - сиды/пиры с внешних источников

   
 
Автор Сообщение

ARI71 Пол:Муж

27-Июн-2016 07:15

Интервью без комментариев: Анатолий Собчак


Год выпуска: 2012
Жанр: документальный, интервью
Страна: Россия ЗАО "ТК "Совершенно секретно"
В ролях: Анатолий Собчак
Сюжет фильма:
Описание: Анато́лий Алекса́ндрович Собча́к (10 августа 1937, Чита — 19 февраля 2000, Светлогорск, Калининградская область) — советский и российский политический деятель, первый и на данный момент единственный мэр Санкт-Петербурга.
(Съёмки интервью с Анатолием Собчаком произведены в 1999 году).

Качество видео: SatRip

Продолжительность: 00:29:19
Формат: AVI
Видео: DivX 5, 704x528, ~1278 kbps
Аудио: русский, (оригинал), MP3 2.0, ~128.00 kbps

Код:

Общее
Полное имя : D:\Sov_sek-Interv'ju-Anatolij_Sobchak-10.08.2012.avi
Формат : AVI
Формат/Информация : Audio Video Interleave
Размер файла : 297 Мбайт
Продолжительность : 29 м.
Общий поток : 1416 Кбит/сек
Библиотека кодирования : VirtualDub-MPEG2 build 24600/release

Видео
Идентификатор : 0
Формат : MPEG-4 Visual
Параметр BVOP формата : 1
Параметр QPel формата : Нет
Параметр GMC формата : Без точки перехода
Параметр матрицы формата : Default (H.263)
Режим смешивания : Сжатый битовый поток
Идентификатор кодека : DX50
Идентификатор кодека/Подсказка : DivX 5
Продолжительность : 29 м.
Битрейт : 1278 Кбит/сек
Ширина : 704 пикселя
Высота : 528 пикселей
Соотношение сторон : 4:3
Частота кадров : 25,000 кадров/сек
Цветовое пространство : YUV
Субдискретизация насыщенности : 4:2:0
Битовая глубина : 8 бит
Тип развёртки : Прогрессивная
Метод сжатия : С потерями
Бит/(Пиксели*Кадры) : 0.138
Размер потока : 268 Мбайт (90%)
Библиотека кодирования : DivX 6.8.5 (UTC 2009-08-20)

Аудио
Идентификатор : 1
Формат : MPEG Audio
Версия формата : Version 1
Профиль формата : Layer 3
Режим : Joint stereo
Расширение режима : MS Stereo
Идентификатор кодека : 55
Идентификатор кодека/Подсказка : MP3
Продолжительность : 29 м.
Вид битрейта : Постоянный
Битрейт : 128 Кбит/сек
Каналы : 2 канала
Частота : 48,0 КГц
Метод сжатия : С потерями
Размер потока : 26,8 Мбайт (9%)
Выравнивание : Разделение по промежуткам
Продолжительность промежутка : 40 мс. (1,00 видеокадр)
Время предзагрузки промежутка : 500 мс.
picpicpicpic
Для увеличения картинки щелкните мышкой по превью

Этот торрент недоступен для скачивания без регистрации, однако доступен по публичной magnet-ссылке (источники с публичных трекеров). Перед использованием ссылки прочтите, пожалуйста Пользовательское соглашение, а также как можно дольше оставайтесь на раздаче! Для того, чтобы скачать сам торрент-файл (который видит больше источников), а также для того, чтобы поблагодарить релизера, вам необходимо зарегистрироваться. Если регистрироваться лень - вы можете также попробовать скачать релиз по нашим партнерским ссылкам ниже.

[underverse.su].t67544.torrent
Трекер: Зарегистрирован   [ 27.06.2016 07:15 ]  

Статус: проверено (by makkol at 27.06.2016 10:13)
Поблагодарили: пока никто не поблагодарил...
Тип торрента: публичный - доступные источники с открытых трекеров: 
Размер: 297 MB (занимает 0,07 DVDR, для записи нужно 1 болванка DVDR/RW)
 
 

Яндекс.Метрика powered by Sphinx


В Н И М А Н И Е
Сайт не распространяет и не хранит электронные версии произведений, а лишь бесплатно и без коммерческой выгоды (не требуя взамен платы,
SMS и т.д.) предоставляет доступ к создаваемому пользователями каталогу ссылок на торрент-файлы, которые содержат только списки хеш-сумм.
Убедительная просьба с жалобами обращаться напрямую к пользователю, разместившему торрент файл.

Вверх