Loading...
Error

Идеальные незнакомцы / Perfetti sconosciuti (Паоло Дженовезе) [2016 г., драма, комедия, BDRip] VO

Статистика раздачи
Размер:  1,24 GB   |    Зарегистрирован:  5 месяцев 11 дней   |    Скачан:  19 раз

Полного источника не было: 19 часов

Сидов:  0  |  0 KB/s  ]   Личеров:  0  |  0 KB/s  ]

* - сиды/пиры с внешних источников

   
 
Автор Сообщение

makkol Пол:Муж

26-Июн-2016 22:56

Идеальные незнакомцы / Perfetti sconosciuti


Год выпуска: 2016
Жанр: драма, комедия
Производство: Италия [Lotus Productions, Medusa Film, Leone Film Group]
Режиссер: Паоло Дженовезе
В ролях: Джузеппе Баттистон, Анна Фольетта, Марко Джаллини, Эдоардо Лео, Валерио Мастандреа, Альба Рорвахер, Касия Смутняк
Сюжет фильма:
Семеро старых друзей собираются вместе на ужин. Когда они решают начать игру, заключающуюся в том, что им придется читать все поступающие смс вслух, а на звонки отвечать по громкой связи, они и представить себе не могут, к чему приведет такая откровенность.

  • Мировая премьера: 11 февраля 2016


Качество видео: BDRip

Продолжительность: 01:36:03
Формат: AVI
Видео: XviD, 720x304 (2.35:1), 23.976 fps, 1391 kbps
Аудио: русский, любительский одноголосый закадровый, AC3 5.1, 48 kHz, 448 kbps

Код:

Format : AVI
Format/Info : Audio Video Interleave
File size : 1.24 GiB
Duration : 1h 36mn
Overall bit rate : 1 849 Kbps
Writing application : VirtualDubMod 1.5.10.3 (build 2550/release)
Writing library : VirtualDubMod build 2550/release

Video
ID : 0
Format : MPEG-4 Visual
Format profile : Advanced Simple@L5
Format settings, BVOP : No
Format settings, QPel : No
Format settings, GMC : No warppoints
Format settings, Matrix : Custom
Codec ID : XVID
Codec ID/Hint : XviD
Duration : 1h 36mn
Bit rate : 1 391 Kbps
Width : 720 pixels
Height : 304 pixels
Display aspect ratio : 2.35:1
Frame rate : 23.976 fps
Color space : YUV
Chroma subsampling : 4:2:0
Bit depth : 8 bits
Scan type : Progressive
Compression mode : Lossy
Bits/(Pixel*Frame) : 0.265
Stream size : 956 MiB (75%)
Writing library : XviD 64

Audio
ID : 1
Format : AC-3
Format/Info : Audio Coding 3
Mode extension : CM (complete main)
Format settings, Endianness : Big
Codec ID : 2000
Duration : 1h 36mn
Bit rate mode : Constant
Bit rate : 448 Kbps
Channel(s) : 6 channels
Channel positions : Front: L C R, Side: L R, LFE
Sampling rate : 48.0 KHz
Compression mode : Lossy
Stream size : 308 MiB (24%)
Alignment : Split accross interleaves
Interleave, duration : 42 ms (1.00 video frame)
Interleave, preload duratio : 500 ms
Перевод: Professor
Озвучивание: LetEatBee
pic pic pic pic pic
Для увеличения картинки щелкните мышкой по превью

Этот торрент недоступен для скачивания без регистрации, однако доступен по публичной magnet-ссылке (источники с публичных трекеров). Перед использованием ссылки прочтите, пожалуйста Пользовательское соглашение, а также как можно дольше оставайтесь на раздаче! Для того, чтобы скачать сам торрент-файл (который видит больше источников), а также для того, чтобы поблагодарить релизера, вам необходимо зарегистрироваться. Если регистрироваться лень - вы можете также попробовать скачать релиз по нашим партнерским ссылкам ниже.

[underverse.su].t67543.torrent
Трекер: Зарегистрирован   [ 26.06.2016 22:57 ]  

Статус: проверено (by makkol at 27.06.2016 23:16)
Поблагодарили: пока никто не поблагодарил...
Тип торрента: публичный - доступные источники с открытых трекеров: 
Размер: 1,24 GB (занимает 0,28 DVDR, для записи нужно 1 болванка DVDR/RW)
 
 
Похожие темы
Форум Тема Автор Торрент Отв. Посл. сооб.
Зарубежное кино [DVDRip, Low-Res HDRip, и т.д.] Идеальные каникулы / A Perfect Vacation / Awaken (Марк Аткинс) [2015 г., ужасы, боевик, триллер, HDRip] VO makkol
46 | 0

0 | 616

36

04.10.2015 09:58

Зарубежное кино [HDDVDRip / BDRip / WEB-DL / HDTV 1080/720р] Идеальные каникулы / A Perfect Vacation / Awaken (Марк Аткинс) [2015 г., ужасы, боевик, триллер, BDRip 1080p] VO + Original makkol
0 | 0

0 | 560

13

04.10.2015 10:09

Зарубежное кино [HDDVDRip / BDRip / WEB-DL / HDTV 1080/720р] Идеальные незнакомцы / Perfetti sconosciuti (Паоло Дженовезе) [2016 г., комедия, драма, BDRip 1080p] VO IronMan
74 | 0

1 | 707

17

05.07.2016 23:35


Яндекс.Метрика powered by Sphinx


В Н И М А Н И Е
Сайт не распространяет и не хранит электронные версии произведений, а лишь бесплатно и без коммерческой выгоды (не требуя взамен платы,
SMS и т.д.) предоставляет доступ к создаваемому пользователями каталогу ссылок на торрент-файлы, которые содержат только списки хеш-сумм.
Убедительная просьба с жалобами обращаться напрямую к пользователю, разместившему торрент файл.

Вверх