Loading...
Error

Сокровища государства / Treasure state (Эндрю Уист) [2013 г., приключения, семейный, WEB-DLRip] MVO

Статистика раздачи
Размер:  1,37 GB   |    Зарегистрирован:  5 месяцев 8 дней   |    Скачан:  5 раз

Полного источника не было: 3 месяца 23 дня

Сидов:  0  |  0 KB/s  ]   Личеров:  0  |  0 KB/s  ]

* - сиды/пиры с внешних источников

   
 
Автор Сообщение

makkol Пол:Муж

26-Июн-2016 22:30

Сокровища государства / Treasure state


Год выпуска: 2013
Жанр: приключения, семейный
Производство: США [Good Outlaw Studios]
Режиссер: Эндрю Уист
В ролях: Роберт Майло Эндрус, Роберт Беар, Джейк Браманте, Колтон Кристенсен, Карен Данхэм, Лилит Филдс, Джуда Джастин, Лайам Джастин, Ларри Лэвэрти, Кристал Льюис
Сюжет фильма:
Семейства Хоугсов и Стэнтонов, проживающих рядом с заснеженными горами Монтаны, уже не одно поколение ведут вражду друг с другом. Вот и подрастающие сыновья Леви Хоугс и Трей Стэнтон не отстают от взрослых, постоянно соревнуясь и конфликтуя друг с другом. Однажды мальчики становятся свидетелями того, как самолет терпит крушение над горами. По телевизору объявляют, что самолет перевозил очень важный груз. Леви и Трей решают вместе отправиться на поиски обломков и первыми найти сокровища государства, которые, как они считают, и перевозил самолет.

  • Мировая премьера: 3 декабря 2013


Качество видео: WEB-DLRip

Продолжительность: 01:22:34
Формат: AVI
Видео: XviD, 720x400 (16:9), 25.000 fps, 2167 kbps
Аудио: русский, профессиональный многоголосый закадровый (официальный звук), AC3 2.0, 48 kHz, 192 kbps

Код:

Формат : AVI
Формат/Информация : Audio Video Interleave
Размер файла : 1,37 Гбайт
Продолжительность : 1 ч. 22 м.
Общий поток : 2369 Кбит/сек
Программа кодирования : VirtualDubMod 1.5.10.3 | www.virtualdub-fr.org || (build 2550/release)
Библиотека кодирования : VirtualDubMod build 2550/release

Видео
Идентификатор : 0
Формат : MPEG-4 Visual
Профиль формата : Advanced Simple@L5
Параметр BVOP формата : 2
Параметр QPel формата : Нет
Параметр GMC формата : Без точки перехода
Параметр матрицы формата : Default (MPEG)
Идентификатор кодека : XVID
Идентификатор кодека/Подсказка : XviD
Продолжительность : 1 ч. 22 м.
Битрейт : 2167 Кбит/сек
Ширина : 720 пикселей
Высота : 400 пикселей
Соотношение сторон : 16:9
Частота кадров : 25,000 кадров/сек
Цветовое пространство : YUV
Субдискретизация насыщенности : 4:2:0
Битовая глубина : 8 бит
Тип развёртки : Прогрессивная
Метод сжатия : С потерями
Бит/(Пиксели*Кадры) : 0.301
Размер потока : 1,25 Гбайт (91%)
Библиотека кодирования : XviD 1.2.1 (UTC 2008-12-04)

Аудио
Идентификатор : 1
Формат : AC-3
Формат/Информация : Audio Coding 3
Расширение режима : CM (complete main)
Параметр Endianness формата : Big
Идентификатор кодека : 2000
Продолжительность : 1 ч. 22 м.
Вид битрейта : Постоянный
Битрейт : 192 Кбит/сек
Каналы : 2 канала
Расположение каналов : Front: L R
Частота : 48,0 КГц
Частота кадров : 31,250 кадров/сек (1536 spf)
Метод сжатия : С потерями
Размер потока : 113 Мбайт (8%)
Выравнивание : Разделение по промежуткам
Продолжительность промежутка : 40 мс. (1,00 видеокадр)
Время предзагрузки промежутка : 500 мс.
picpicpicpicpic
Для увеличения картинки щелкните мышкой по превью

Этот торрент недоступен для скачивания без регистрации, однако доступен по публичной magnet-ссылке (источники с публичных трекеров). Перед использованием ссылки прочтите, пожалуйста Пользовательское соглашение, а также как можно дольше оставайтесь на раздаче! Для того, чтобы скачать сам торрент-файл (который видит больше источников), а также для того, чтобы поблагодарить релизера, вам необходимо зарегистрироваться. Если регистрироваться лень - вы можете также попробовать скачать релиз по нашим партнерским ссылкам ниже.

[underverse.su].t67540.torrent
Трекер: Зарегистрирован   [ 26.06.2016 22:30 ]  

Статус: T временная (by makkol at 27.06.2016 23:11)
Поблагодарили: пока никто не поблагодарил...
Тип торрента: публичный - доступные источники с открытых трекеров: 
Размер: 1,37 GB (занимает 0,31 DVDR, для записи нужно 1 болванка DVDR/RW)
 
 
Похожие темы
Форум Тема Автор Торрент Отв. Посл. сооб.
Зарубежное кино [DVDRip, Low-Res HDRip, и т.д.] Сокровища чёрного ягуара / Treasure of the Black Jaguar (Майк Брюс) [2010 г., Боевик, приключения, HDTVRip] DVO Чертёнок
4 | 0

0 | 1629

24

04.10.2013 17:43

Классика зарубежного кино Сокровища Сьерра Мадре / The Treasure of the Sierra Madre (Джон Хьюстон) [1948 г., боевик, драма, приключения, вестерн, HDRip] deny-BOY
0 | 0

0 | 748

4

11.04.2012 11:48

Наше кино [DVDRip, Low-Res HDRip, и т.д.] Сокровища О.К. (Дмитрий Коробкин) [2013 г., комедия, приключения, WebRip] TERRAN
243 | 3

0 | 1504

101

16.06.2013 11:52

Наше кино [DVDRip, Low-Res HDRip, и т.д.] Сокровища О.К. (Дмитрий Коробкин) [2013 г., комедия, приключения, SATRip] 90ytr90
0 | 0

0 | 997

21

10.11.2013 08:36

* Наше кино [DVDRip, Low-Res HDRip, и т.д.] Сокровища О.К. (Дмитрий Коробкин) [2013 г., комедия, приключения, BDRip] 90ytr90

1 | 1878

28.11.2013 18:51

BBC Сокровища Древней Греции / Treasures of Ancient Greece (Дэвид Винсент) / (1-3 серии из 3) [2015 г., документальный, исторический, искусство, HDTVRip] VO ARI71
18 | 1

0 | 856

4

20.06.2016 07:42

BBC Сокровища Инда / Treasures of the Indus (1-3 серии из 3) / (Хуг Томсон) [2015 г., документальный, путешествие, история, SatRip] DVO ARI71
6 | 0

1 | 788

1

28.08.2016 09:49

T Зарубежное кино [HDDVDRip / BDRip / WEB-DL / HDTV 1080/720р] Сокровища государства / Treasure state (Эндрю Уист) [2013 г., приключения, семейный, WEB-DL 1080p] MVO makkol
1 | 0

0 | 609

4

26.06.2016 22:39

Наше кино [HDDVDRip / BDRip / WEB-DL / HDTV 1080/720р] Сокровища О.К. (Дмитрий Коробкин) [2013 г., комедия, приключения, BDRip 720p] 90ytr90
1 | 0

0 | 451

12

28.11.2013 18:09

Другие Аркады Сокровища Монтесумы 4 [2013 г., Аркады / три в ряд] Ru/En [P] centoriuse
1 | 0

0 | 1339

33

28.09.2013 12:29


Яндекс.Метрика powered by Sphinx


В Н И М А Н И Е
Сайт не распространяет и не хранит электронные версии произведений, а лишь бесплатно и без коммерческой выгоды (не требуя взамен платы,
SMS и т.д.) предоставляет доступ к создаваемому пользователями каталогу ссылок на торрент-файлы, которые содержат только списки хеш-сумм.
Убедительная просьба с жалобами обращаться напрямую к пользователю, разместившему торрент файл.

Вверх