Loading...
Error

Волшебники Забытого королевства / Колдуны потерянного королевства / Wizards of the Lost Kingdom (Эктор Оливера) [1985 г., фэнтези, боевик, приключения, семейный, VHSRip-AVC] VO + Original

Статистика раздачи
Размер:  1,52 GB   |    Зарегистрирован:  5 месяцев 14 дней   |    Скачан:  1 раз

Полного источника не было: 56 минут

Сидов:  0  |  0 KB/s  ]   Личеров:  0  |  0 KB/s  ]

* - сиды/пиры с внешних источников

   
 
Автор Сообщение

makkol Пол:Муж

26-Июн-2016 11:07

Волшебники Забытого королевства / Колдуны потерянного королевства / Wizards of the Lost Kingdom


Год выпуска: 1985
Жанр: фэнтези, боевик, приключения, семейный
Производство: Аргентина , США [Trinity Productions]
Режиссер: Эктор Оливера
В ролях: Бо Свенсон, Видал Петерсон, Том Кристофер, Барбара Сток, Мария Сокас, Долорес Майклс, Эдгардо Морейра, Августо Ларрета, Майкл Фонтейн
Сюжет фильма:
Саймон — сын короля и мага, вынужден был бежать из своих земель, когда королевство захватывает злой колдун Шарка. Обученный искусству магии, Саймон должен найти Меч власти и Магическое кольцо, с помощью которых есть шанс одолеть волшебника, убившего его отца, и вернуть утраченное королевство. Помогут ему в этом его верный друг Голфэкс, странствующий воин Кор и лесной волшебник Хурла.

  • Мировая премьера: 30 ноября 1985


Качество видео: VHSRip-AVC

Продолжительность: 01:15:14
Формат: MKV
Видео: MPEG-4 AVC, 720x480 (4:3), 29.970 fps, 2443 kbps
Аудио #1: русский, любительский одноголосый закадровый, AC3 2.0, 48 kHz, 192 kbps
Аудио #2: английский, оригинал, AC3 2.0, 48 kHz, 192 kbps

Код:

Формат                                   : Matroska
Версия формата                           : Version 4 / Version 2
Размер файла                             : 1,52 Гбайт
Продолжительность                        : 1 ч. 15 м.
Общий поток                              : 2884 Кбит/сек
Дата кодирования                         : UTC 2016-05-22 19:09:03
Программа кодирования                    : mkvmerge v7.9.0 ('Birds') 64bit
Библиотека кодирования                   : libebml v1.3.1 + libmatroska v1.4.2

Видео
Идентификатор                            : 1
Формат                                   : AVC
Формат/Информация                        : Advanced Video Codec
Профиль формата                          : Main@L3
Параметр CABAC формата                   : Да
Параметр ReFrames формата                : 3 кадра
Идентификатор кодека                     : V_MPEG4/ISO/AVC
Продолжительность                        : 1 ч. 15 м.
Битрейт                                  : 2443 Кбит/сек
Ширина                                   : 720 пикселей
Высота                                   : 480 пикселей
Соотношение сторон                       : 4:3
Соотношение сторон в оригинале           : 4:3
Режим частоты кадров                     : Постоянный
Частота кадров                           : 29,970 кадров/сек
Стандарт вещания                         : NTSC
Цветовое пространство                    : YUV
Субдискретизация насыщенности            : 4:2:0
Битовая глубина                          : 8 бит
Тип развёртки                            : Прогрессивная
Бит/(Пиксели*Кадры)                      : 0.236
Размер потока                            : 1,28 Гбайт (85%)
Язык                                     : English
Default                                  : Да
Forced                                   : Нет

Аудио #1
Идентификатор                            : 2
Формат                                   : AC-3
Формат/Информация                        : Audio Coding 3
Расширение режима                        : CM (complete main)
Параметр Endianness формата              : Big
Идентификатор кодека                     : A_AC3
Продолжительность                        : 1 ч. 15 м.
Вид битрейта                             : Постоянный
Битрейт                                  : 192 Кбит/сек
Каналы                                   : 2 канала
Расположение каналов                     : Front: L R
Частота                                  : 48,0 КГц
Метод сжатия                             : С потерями
Размер потока                            : 103 Мбайт (7%)
Язык                                     : Russian
Default                                  : Да
Forced                                   : Нет

Аудио #2
Идентификатор                            : 3
Формат                                   : AC-3
Формат/Информация                        : Audio Coding 3
Расширение режима                        : CM (complete main)
Параметр Endianness формата              : Big
Идентификатор кодека                     : A_AC3
Продолжительность                        : 1 ч. 15 м.
Вид битрейта                             : Постоянный
Битрейт                                  : 192 Кбит/сек
Каналы                                   : 2 канала
Расположение каналов                     : Front: L R
Частота                                  : 48,0 КГц
Метод сжатия                             : С потерями
Размер потока                            : 103 Мбайт (7%)
Язык                                     : English
Default                                  : Нет
Forced                                   : Нет
picpicpicpicpic
Для увеличения картинки щелкните мышкой по превью

Этот торрент недоступен для скачивания без регистрации, однако доступен по публичной magnet-ссылке (источники с публичных трекеров). Перед использованием ссылки прочтите, пожалуйста Пользовательское соглашение, а также как можно дольше оставайтесь на раздаче! Для того, чтобы скачать сам торрент-файл (который видит больше источников), а также для того, чтобы поблагодарить релизера, вам необходимо зарегистрироваться. Если регистрироваться лень - вы можете также попробовать скачать релиз по нашим партнерским ссылкам ниже.

[underverse.su].t67516.torrent
Трекер: Зарегистрирован   [ 26.06.2016 11:07 ]  

Статус: проверено (by makkol at 27.06.2016 23:08)
Поблагодарили: пока никто не поблагодарил...
Тип торрента: публичный - доступные источники с открытых трекеров: 
Размер: 1,52 GB (занимает 0,35 DVDR, для записи нужно 1 болванка DVDR/RW)
 
 

Яндекс.Метрика powered by Sphinx


В Н И М А Н И Е
Сайт не распространяет и не хранит электронные версии произведений, а лишь бесплатно и без коммерческой выгоды (не требуя взамен платы,
SMS и т.д.) предоставляет доступ к создаваемому пользователями каталогу ссылок на торрент-файлы, которые содержат только списки хеш-сумм.
Убедительная просьба с жалобами обращаться напрямую к пользователю, разместившему торрент файл.

Вверх