Loading...
Error

Дикие земли Европы / Europe's Great Wilderness (1-3 серии из 3) / (Алисон Биан) [2015 г., документальный, природа, флора, фауна, LowHDTVRip] Dub

Статистика раздачи
Размер:  2,03 GB   |    Зарегистрирован:  5 месяцев 7 дней   |    Скачан:  1 раз

Полного источника не было: 10 часов

Сидов:  0  |  0 KB/s  ]   Личеров:  0  |  0 KB/s  ]

* - сиды/пиры с внешних источников

   
 
Автор Сообщение

ARI71 Пол:Муж

25-Июн-2016 17:26

Дикие земли Европы / Europe's Great Wilderness (1-3 серии из 3)


Год выпуска: 2015
Жанр: документальный, природа, флора, фауна
Страна: Великобритания Off the Fence for Blue Ant Media and National Geographic Channel
Режиссер: Алисон Биан
Сюжет фильма:
Европа - часть света в северном полушарии Земли, которая вместе с Азией образует материк Евразия.
Флора и фауна Европы невероятно разнообразны. Температура колеблется от +40 до - 40 градусов по нескольким экорегионам. Бескрайние гектары её лесов простираются от островных берегов Северного полярного круга и далеко в Атлантический океан. Природные зоны расположены в полном соответствии с климатическими условиями: арктическая пустыня в Арктике, затем тундра, лесотундра, тайга, смешанные леса, широколиственные леса, лесостепи и степи, леса субтропиков и полупустыни. Разнообразие природных зон определило богатство европейской флоры и фауны. В Арктике и тундре разгуливают северные олени и белые медведи, меж карликовых деревьев прячутся пушистые песцы и полярные зайцы, а в водах северных морей плещутся моржи и тюлени. Документальный сериал "Дикие земли Европы" исследует природу и мозаику мест обитания, которые являются родным домом для всех видов этих животных...

Качество видео: LowHDTVRip

Продолжительность: 3 x ~ 00:44:00
Формат: AVI
Видео: XviD, 720x400, ~1993 kbps
Аудио: русский, (дублированный), AC3 2.0, 192.00 kbps
(тех. данные всех серий идентичны)
01. Жизнь при минусовых температурах / Life Below Zero
В некоторых регионах Европы ледниковый период так и не прошёл, поэтому существам приходится изо всех сил сражаться с минусовыми температурами.

02. Зелёное сердце Европы / Europe's Green Heart
Самые разнообразные места становятся красивой средой обитания на планете: от средиземноморских пробковых лесов до вечнозелёной тайги.

03. Живые воды Европы / Europe's Living Waters
Красоты дикой природы Европы иссечены ручьями, реками и озёрами, которые стали домом для множества различных видов существ.
Документальный дубляж "Велес":
Голос рассказчика - полный дубляж
Интервью - слышна оригинальная речь

Текст читает Олег Белов

Код:

Общее
Полное имя : D:\dikie_zemli_evropy_rip_DIS_[*другой трекер*]\01_life_below_zero_rip_DIS_[*другой трекер*].avi
Формат : AVI
Формат/Информация : Audio Video Interleave
Размер файла : 691 Мбайт
Продолжительность : 43 м.
Общий поток : 2196 Кбит/сек
Программа кодирования : Lavf54.63.104

Видео
Идентификатор : 0
Формат : xvid
Идентификатор кодека : xvid
Продолжительность : 43 м.
Битрейт : 1993 Кбит/сек
Ширина : 720 пикселей
Высота : 400 пикселей
Соотношение сторон : 16:9
Частота кадров : 25,000 кадров/сек
Тип развёртки : Прогрессивная
Бит/(Пиксели*Кадры) : 0.277
Размер потока : 627 Мбайт (91%)

Аудио
Идентификатор : 1
Формат : AC-3
Формат/Информация : Audio Coding 3
Расширение режима : CM (complete main)
Параметр Endianness формата : Big
Идентификатор кодека : 2000
Продолжительность : 43 м.
Вид битрейта : Постоянный
Битрейт : 192 Кбит/сек
Каналы : 2 канала
Расположение каналов : Front: L R
Частота : 48,0 КГц
Частота кадров : 31,250 кадров/сек (1536 spf)
Битовая глубина : 16 бит
Метод сжатия : С потерями
Размер потока : 60,4 Мбайт (9%)
Выравнивание : Соединение по промежуткам
Продолжительность промежутка : 32 мс. (0,80 видеокадр)
Релиз группы:

picpicpicpicpic
Для увеличения картинки щелкните мышкой по превью

Этот торрент недоступен для скачивания без регистрации, однако доступен по публичной magnet-ссылке (источники с публичных трекеров). Перед использованием ссылки прочтите, пожалуйста Пользовательское соглашение, а также как можно дольше оставайтесь на раздаче! Для того, чтобы скачать сам торрент-файл (который видит больше источников), а также для того, чтобы поблагодарить релизера, вам необходимо зарегистрироваться. Если регистрироваться лень - вы можете также попробовать скачать релиз по нашим партнерским ссылкам ниже.

[underverse.su].t67504.torrent
Трекер: Зарегистрирован   [ 25.06.2016 17:26 ]  

Статус: проверено (by makkol at 25.06.2016 17:56)
Поблагодарили: 1 человек
Тип торрента: публичный - доступные источники с открытых трекеров: 
Размер: 2,03 GB (занимает 0,46 DVDR, для записи нужно 1 болванка DVDR/RW)
 
 
Похожие темы
Форум Тема Автор Торрент Отв. Посл. сооб.
National Geographic Дикие земли Европы / Europe's Great Wilderness (1-3 серии из 3) / (Алисон Биан) [2015 г., документальный, природа, флора, фауна, HDTVRip 720p] Dub ARI71
5 | 0

0 | 780

2

20.06.2016 16:15


Яндекс.Метрика powered by Sphinx


В Н И М А Н И Е
Сайт не распространяет и не хранит электронные версии произведений, а лишь бесплатно и без коммерческой выгоды (не требуя взамен платы,
SMS и т.д.) предоставляет доступ к создаваемому пользователями каталогу ссылок на торрент-файлы, которые содержат только списки хеш-сумм.
Убедительная просьба с жалобами обращаться напрямую к пользователю, разместившему торрент файл.

Вверх