Loading...
Error

Владимир Молчанов. Как все начиналось [2016 г., документальный, биография, WEB-DLRip]

Статистика раздачи
Размер:  528 MB   |    Зарегистрирован:  5 месяцев 8 дней   |    Скачан:  2 раза

Полного источника не было: 5 месяцев 5 дней

Сидов:  0  |  0 KB/s  ]   Личеров:  0  |  0 KB/s  ]

* - сиды/пиры с внешних источников

   
 
Автор Сообщение

ARI71 Пол:Муж

25-Июн-2016 16:30

Владимир Молчанов. Как все начиналось


Год выпуска: 2016
Жанр: документальный, биография
Страна: Россия Телеканал "Дождь"
Ведущий: Михаил Козырев
В ролях: Владимир Молчанов
Сюжет фильма:
В гостях у Михаила Козырева журналист, телеведущий, создатель программы «До и после полуночи» Владимир Молчанов. Поговорили о том, почему сегодня стало сложно смотреть телевизор, какие ошибки совершали Горбачев и Ельцин, кто виноват в 70-летнем «отстое» России и о многом другом.

Влади́мир Кири́ллович Молча́нов (7 октября 1950, Москва, СССР) — советский и российский теле- и радиоведущий, диктор, журналист. Автор и ведущий телепрограммы «До и после полуночи» в конце 1980-х — начале 1990-х годов на советском телевидении. Член Академии российского телевидения с 1994 года, руководитель Мастерской факультета Журналистики в Московском институте телевидения и радиовещания «Останкино».

Качество видео: WEB-DLRip

Продолжительность: 00:50:43
Формат: AVI
Видео: XviD, 704x400, ~1241 kbps
Аудио: русский, (оригинал), MP3 2.0, ~128.00 kbps

Код:

Общее
Полное имя : D:\Molchanov_14.05.16.avi
Формат : AVI
Формат/Информация : Audio Video Interleave
Размер файла : 528 Мбайт
Продолжительность : 50 м.
Общий поток : 1455 Кбит/сек
TCOD : 0
TCDO : 30437600000

Видео
Идентификатор : 0
Формат : MPEG-4 Visual
Профиль формата : Advanced Simple@L5
Параметр BVOP формата : 2
Параметр QPel формата : Нет
Параметр GMC формата : Без точки перехода
Параметр матрицы формата : Default (H.263)
Режим смешивания : Сжатый битовый поток
Идентификатор кодека : XVID
Идентификатор кодека/Подсказка : XviD
Продолжительность : 50 м.
Битрейт : 1241 Кбит/сек
Ширина : 704 пикселя
Высота : 400 пикселей
Соотношение сторон : 16:9
Частота кадров : 25,000 кадров/сек
Цветовое пространство : YUV
Субдискретизация насыщенности : 4:2:0
Битовая глубина : 8 бит
Тип развёртки : Прогрессивная
Метод сжатия : С потерями
Бит/(Пиксели*Кадры) : 0.176
Размер потока : 450 Мбайт (85%)
Библиотека кодирования : XviD 73

Аудио
Идентификатор : 1
Формат : MPEG Audio
Версия формата : Version 1
Профиль формата : Layer 3
Режим : Joint stereo
Идентификатор кодека : 55
Идентификатор кодека/Подсказка : MP3
Продолжительность : 50 м.
Вид битрейта : Постоянный
Битрейт : 128 Кбит/сек
Каналы : 2 канала
Частота : 48,0 КГц
Метод сжатия : С потерями
Размер потока : 46,4 Мбайт (9%)
Выравнивание : Соединение по промежуткам
Продолжительность промежутка : 250 мс. (6,25 видеокадров)
Время предзагрузки промежутка : 192 мс.
picpicpicpicpic
Для увеличения картинки щелкните мышкой по превью

Этот торрент недоступен для скачивания без регистрации, однако доступен по публичной magnet-ссылке (источники с публичных трекеров). Перед использованием ссылки прочтите, пожалуйста Пользовательское соглашение, а также как можно дольше оставайтесь на раздаче! Для того, чтобы скачать сам торрент-файл (который видит больше источников), а также для того, чтобы поблагодарить релизера, вам необходимо зарегистрироваться. Если регистрироваться лень - вы можете также попробовать скачать релиз по нашим партнерским ссылкам ниже.

[underverse.su].t67502.torrent
Трекер: Зарегистрирован   [ 25.06.2016 16:30 ]  

Статус: проверено (by makkol at 25.06.2016 16:43)
Поблагодарили: пока никто не поблагодарил...
Тип торрента: публичный - доступные источники с открытых трекеров: 
Размер: 528 MB (занимает 0,12 DVDR, для записи нужно 1 болванка DVDR/RW)
 
 
Похожие темы
Форум Тема Автор Торрент Отв. Посл. сооб.
Другая компьютерная литература Владимир Молочков - Цифровое видео для начинающих [2005 г., графика, дизайн, мультимедиа, PDF] RUS Паукан
0 | 0

0 | 417

10

22.02.2014 20:47

Гуманитарные науки, история, публицистика Владимир Мединский - О русской грязи и вековой технической отсталости [2015 г., альтернативная история, история, FB2] RUS Паукан
6 | 0

0 | 555

4

20.04.2016 20:49

Другие аудиокниги Владимир Милов, Борис Немцов, Владимир Рыжков, Ольга Шорина - Путин. Коррупция (2011) [MP3, 128 kbps] kantona
0 | 0

0 | 903

16

31.08.2012 19:37

Историческая литература Владимир Мединский - Мифы о России (2009) [MP3, 192 kbps] Bratok
0 | 0

0 | 3248

30

14.01.2010 21:48

Историческая литература Владимир Малик – Тайный посол 2. Фирман султана [2016 г., историческая проза, приключения, аудиокнига, MP3, 128 kbps] RUS Паукан
25 | 0

0 | 438

7

03.03.2016 14:25

Историческая литература Владимир Малик – Тайный посол 1. Посол Урус-Шайтана [2016 г., историческая проза, приключения, аудиокнига, MP3, 128 kbps] RUS Паукан
7 | 0

0 | 719

7

03.03.2016 14:26

Психология. философия, религия Владимир Малявин - Конфуций (2007) [MP3, 128 Kbps] Bratok
0 | 0

1 | 1321

30

25.10.2010 14:33

Собрания сочинений Владимир Мединский - Сборник произведений [2007-2015 г., документальная литература, история, публицистика, FB2, DJVU] RUS Паукан
25 | 1

1 | 562

8

21.04.2016 01:58


Яндекс.Метрика powered by Sphinx


В Н И М А Н И Е
Сайт не распространяет и не хранит электронные версии произведений, а лишь бесплатно и без коммерческой выгоды (не требуя взамен платы,
SMS и т.д.) предоставляет доступ к создаваемому пользователями каталогу ссылок на торрент-файлы, которые содержат только списки хеш-сумм.
Убедительная просьба с жалобами обращаться напрямую к пользователю, разместившему торрент файл.

Вверх