Loading...
Error

Бунтарь / Baaghi (Сабир Кхан) [2016 г., боевик, мелодрама, DVDRip] MVO + Original

Статистика раздачи
Размер:  1,38 GB   |    Зарегистрирован:  5 месяцев 12 дней   |    Скачан:  8 раз

Полного источника не было: 4 месяца 14 дней

Сидов:  0  |  0 KB/s  ]   Личеров:  0  |  0 KB/s  ]

* - сиды/пиры с внешних источников

   
 
Автор Сообщение

makkol Пол:Муж

25-Июн-2016 10:58

Бунтарь / Baaghi


Год выпуска: 2016
Жанр: боевик, мелодрама
Страна: Индия [Benetone Films, Nadiadwala Grandson Entertainment]
Режиссер: Сабир Кхан
В ролях: Шраддха Капур, Тайгер Шрофф, Судхир Бабу Посани, Парас Арора, Самит Гулати
Сюжет фильма:
Рони нельзя назвать дураком. Но, в свои 23 года, Рони своеобразно выражает свои мысли и решает спорные вопросы. Он мог бы стать отличным врачом или ученым, но бунтарский характер не дает ему такой возможности. Устав от вечных проблем и непонимания со стороны сына, родители отправляют парня на обучение в академию, где на первом месте стоит дисциплина и самообладание. Приехав на место, Рони сразу проявил свой дух мятежника. Возмездие настигло нового студента моментально. Молодой человек понял, что необходимо приспосабливаться, чтобы избежать постоянного унижения. В академии все на равном положении. Нет любимчиков и изгоев. Ученик обязан выполнять все, что прикажут учителя. Молодежь обучают всему, начиная от мытья полов и владения мечом и заканчивая духовными практиками и различными единоборствами.Тут он познакомился с прекрасной Сией которая, так же как и он была отправлена в академию из-за несносного характера. Он влюбился, но у девушки есть парень. Характер вновь взял верх над Рони. Парень различными способами пытается привлечь внимание Сии. Получив известие о пропаже Сии, Рони отправляется на ее поиски в Таиланд. Ее выкрал Ракхав, местный криминальный авторитет.

  • Мировая премьера: 28 апреля 2016


Качество видео: DVDRip

Продолжительность: 02:14:17
Формат: AVI
Видео: XviD, 720x304 (2.35:1), 23.976 fps, 1199 kbps
Аудио #1: русский, любительский многоголосый закадровый (Sunshine Studio), MP3 2.0, 44.1 kHz, 128 kbps
Аудио #2: хинди, оригинал, MP3 2.0, 48 kHz, 128 kbps

Код:

Format : AVI
Format/Info : Audio Video Interleave
File size : 1.38 GiB
Duration : 2h 14mn
Overall bit rate : 1 470 Kbps
Writing application : VirtualDubMod 1.6.0.0 SURROUND (build 2560/release)
Writing library : VirtualDubMod build 2560/release

Video
ID : 0
Format : MPEG-4 Visual
Format profile : Advanced Simple@L5
Format settings, BVOP : 2
Format settings, QPel : No
Format settings, GMC : No warppoints
Format settings, Matrix : Custom
Codec ID : XVID
Codec ID/Hint : XviD
Duration : 2h 14mn
Bit rate : 1 200 Kbps
Width : 720 pixels
Height : 304 pixels
Display aspect ratio : 2.35:1
Frame rate : 23.976 fps
Color space : YUV
Chroma subsampling : 4:2:0
Bit depth : 8 bits
Scan type : Progressive
Compression mode : Lossy
Bits/(Pixel*Frame) : 0.229
Stream size : 1.13 GiB (82%)
Writing library : XviD 67

Audio #1
ID : 1
Format : MPEG Audio
Format version : Version 1
Format profile : Layer 3
Codec ID : 55
Codec ID/Hint : MP3
Duration : 2h 14mn
Bit rate mode : Constant
Bit rate : 128 Kbps
Channel(s) : 2 channels
Sampling rate : 44.1 KHz
Compression mode : Lossy
Stream size : 123 MiB (9%)
Alignment : Split accross interleaves
Interleave, duration : 42 ms (1.00 video frame)
Interleave, preload duratio : 500 ms

Audio #2
ID : 2
Format : MPEG Audio
Format version : Version 1
Format profile : Layer 3
Mode : Joint stereo
Mode extension : MS Stereo
Codec ID : 55
Codec ID/Hint : MP3
Duration : 2h 14mn
Bit rate mode : Constant
Bit rate : 128 Kbps
Channel(s) : 2 channels
Sampling rate : 48.0 KHz
Compression mode : Lossy
Stream size : 123 MiB (9%)
Alignment : Aligned on interleaves
Interleave, duration : 42 ms (1.00 video frame)
Interleave, preload duratio : 504 ms
Релиз:

picpicpicpicpic
Для увеличения картинки щелкните мышкой по превью

Этот торрент недоступен для скачивания без регистрации, однако доступен по публичной magnet-ссылке (источники с публичных трекеров). Перед использованием ссылки прочтите, пожалуйста Пользовательское соглашение, а также как можно дольше оставайтесь на раздаче! Для того, чтобы скачать сам торрент-файл (который видит больше источников), а также для того, чтобы поблагодарить релизера, вам необходимо зарегистрироваться. Если регистрироваться лень - вы можете также попробовать скачать релиз по нашим партнерским ссылкам ниже.

[underverse.su].t67494.torrent
Трекер: Зарегистрирован   [ 25.06.2016 10:58 ]  

Статус: проверено (by makkol at 27.06.2016 22:57)
Поблагодарили: пока никто не поблагодарил...
Тип торрента: публичный - доступные источники с открытых трекеров: 
Размер: 1,38 GB (занимает 0,31 DVDR, для записи нужно 1 болванка DVDR/RW)
 
 

Яндекс.Метрика powered by Sphinx


В Н И М А Н И Е
Сайт не распространяет и не хранит электронные версии произведений, а лишь бесплатно и без коммерческой выгоды (не требуя взамен платы,
SMS и т.д.) предоставляет доступ к создаваемому пользователями каталогу ссылок на торрент-файлы, которые содержат только списки хеш-сумм.
Убедительная просьба с жалобами обращаться напрямую к пользователю, разместившему торрент файл.

Вверх