Loading...
Error

В мире прошлого. Преступления и наказания [2011 г., документальный, война, история, SatRip]

Статистика раздачи
Размер:  502 MB   |    Зарегистрирован:  5 месяцев 8 дней   |    Скачан:  1 раз

Полного источника не было: 3 месяца 3 дня

Сидов:  0  |  0 KB/s  ]   Личеров:  0  |  0 KB/s  ]

* - сиды/пиры с внешних источников

   
 
Автор Сообщение

ARI71 Пол:Муж

25-Июн-2016 05:19

В мире прошлого. Преступления и наказания


Год выпуска: 2011
Жанр: документальный, война, история
Страна: Россия ООО «ДОК-Синема»
Сюжет фильма:
СС – самая чудовищная организация, когда-либо рожденная на германской земле. На её счету миллионы человеческих жертв. Когда СС было выгодно, они могли брать на службу кого угодно. Широко известно про эстонскую, латышскую, украинскую дивизии войск СС, про белорусскую знают только историки, а вот про русскую дивизию СС мало кто слышал, но она была и оставила свой жестокий след в истории Великой отечественной...
Многие годы эта история хранилась под грифом совершенно секретно. В октябре 41-го на территории оккупированного немцами Брасовского района под Брянском, где до революции находилось имение великого князя Николая Александровича Романова, была создана Локотская республика. Ее возглавил русский бургомистр Константин Павлович Воскобойник. Он организовал местное самоуправление, Народную социалистическую партию России и отряд самообороны, который назвал Русская освободительная народная армия (РОНА). Немцы рассматривали Локотскую республику как образцовую политическую модель управления покоренными территориями. После убийства партизанами Воскобойника, его сменил Бронислав Каминский. Он использовал вооруженные силы для борьбы с партизанами в тылу немецких армий по линии Орел-Курск, а вскоре его бригада стала одной из структур войск СС и участвовала в подавлении Варшавского восстания.

Качество видео: SatRip

Продолжительность: 00:43:30
Формат: AVI
Видео: XviD, 704x400, ~1477 kbps
Аудио: русский, (оригинал), MP3 2.0, ~128.00 kbps

Код:

Общее
Полное имя : D:\Преступления.и.наказания.2011.XviD.SATRip.alf62.avi
Формат : AVI
Формат/Информация : Audio Video Interleave
Размер файла : 502 Мбайт
Продолжительность : 43 м.
Общий поток : 1615 Кбит/сек
Библиотека кодирования : Boilsoft Joiner build 2411/release

Видео
Идентификатор : 0
Формат : MPEG-4 Visual
Профиль формата : Advanced Simple@L5
Параметр BVOP формата : 2
Параметр QPel формата : Нет
Параметр GMC формата : Без точки перехода
Параметр матрицы формата : Default (MPEG)
Идентификатор кодека : XVID
Идентификатор кодека/Подсказка : XviD
Продолжительность : 43 м.
Битрейт : 1477 Кбит/сек
Ширина : 704 пикселя
Высота : 400 пикселей
Соотношение сторон : 16:9
Частота кадров : 25,000 кадров/сек
Цветовое пространство : YUV
Субдискретизация насыщенности : 4:2:0
Битовая глубина : 8 бит
Тип развёртки : Прогрессивная
Метод сжатия : С потерями
Бит/(Пиксели*Кадры) : 0.210
Размер потока : 460 Мбайт (91%)
Библиотека кодирования : XviD 73

Аудио
Идентификатор : 1
Формат : MPEG Audio
Версия формата : Version 1
Профиль формата : Layer 3
Идентификатор кодека : 55
Идентификатор кодека/Подсказка : MP3
Продолжительность : 43 м.
Вид битрейта : Постоянный
Битрейт : 128 Кбит/сек
Каналы : 2 канала
Частота : 44,1 КГц
Метод сжатия : С потерями
Размер потока : 39,8 Мбайт (8%)
Выравнивание : Разделение по промежуткам
Продолжительность промежутка : 40 мс. (1,00 видеокадр)
Время предзагрузки промежутка : 500 мс.
Библиотека кодирования : LAME3.99r
Настройки программы : -m s -V 4 -q 2 -lowpass 17 -b 128
picpicpicpicpic
Для увеличения картинки щелкните мышкой по превью

Этот торрент недоступен для скачивания без регистрации, однако доступен по публичной magnet-ссылке (источники с публичных трекеров). Перед использованием ссылки прочтите, пожалуйста Пользовательское соглашение, а также как можно дольше оставайтесь на раздаче! Для того, чтобы скачать сам торрент-файл (который видит больше источников), а также для того, чтобы поблагодарить релизера, вам необходимо зарегистрироваться. Если регистрироваться лень - вы можете также попробовать скачать релиз по нашим партнерским ссылкам ниже.

[underverse.su].t67491.torrent
Трекер: Зарегистрирован   [ 25.06.2016 05:19 ]  

Статус: проверено (by makkol at 25.06.2016 09:35)
Поблагодарили: 1 человек
Тип торрента: публичный - доступные источники с открытых трекеров: 
Размер: 502 MB (занимает 0,11 DVDR, для записи нужно 1 болванка DVDR/RW)
 
 

Яндекс.Метрика powered by Sphinx


В Н И М А Н И Е
Сайт не распространяет и не хранит электронные версии произведений, а лишь бесплатно и без коммерческой выгоды (не требуя взамен платы,
SMS и т.д.) предоставляет доступ к создаваемому пользователями каталогу ссылок на торрент-файлы, которые содержат только списки хеш-сумм.
Убедительная просьба с жалобами обращаться напрямую к пользователю, разместившему торрент файл.

Вверх