Loading...
Error

Лангольеры / The Langoliers (Том Холлэнд) [1995 г., ужасы, фантастика, триллер, DVDRip] 2xMVO + 4xAVO + Original + Subs

Статистика раздачи
Размер:  4,45 GB   |    Зарегистрирован:  5 месяцев 9 дней   |    Скачан:  6 раз

Полного источника не было: 5 дней

Сидов:  0  |  0 KB/s  ]   Личеров:  0  |  0 KB/s  ]

* - сиды/пиры с внешних источников

   
 
Автор Сообщение

makkol Пол:Муж

23-Июн-2016 22:29

Лангольеры / The Langoliers


Год выпуска: 1995
Жанр: ужасы, фантастика, триллер
Производство: США [Laurel Entertainment Inc., Spelling Films International, Worldvision]
Режиссер: Том Холлэнд
В ролях: Патришиа Уэттиг, Дин Стокуэлл, Дэвид Морс, Марк Линдсэй Чэпман, Фрэнки Фэйзон, Бакстер Харрис, Кимбер Риддл, Кристофер Коллет, Кэйт Мэберли, Бронсон Пинчот
Сюжет фильма:
Девять пассажиров ночного рейса из Лос-Анджелеса в Бостон просыпаются и обнаруживают, что на самолете больше никого нет - ни других пассажиров, ни экипажа. Поскольку среди них есть опытный пилот, им удается приземлиться в штате Мэн. Но на этом их приключение только начинается. Оказывается, что они попали в "мир прошлого", полностью лишенный жизни и пожираемый загадочными монстрами, которых один из пассажиров называет "лангольеры".

Экранизация одноименного романа Стивена Кинга.

  • Мировая премьера: 14 мая 1995


Качество видео: DVDRip

Продолжительность: 02:59:58
Формат: AVI
Видео: XviD, 704x480@704x540 (1.30:1), 23.976 fps, 2118 kbps
Аудио #1: русский, профессиональный многоголосый закадровый (Селена International), AC3 2.0, 48 kHz, 192 kbps
Аудио #2: русский, профессиональный многоголосый закадровый (ТВ-3), AC3 2.0, 48 kHz, 256 kbps - отдельно
Аудио #3: русский, авторский одноголосый закадровый (С. Визгунов), AC3 2.0, 48 kHz, 192 kbps - отдельно
Аудио #4: русский, авторский одноголосый закадровый (Ю. Сербин), AC3 2.0, 48 kHz, 192 kbps - отдельно
Аудио #5: русский, авторский одноголосый закадровый (Ю. Живов), AC3 2.0, 48 kHz, 192 kbps - отдельно
Аудио #6: русский, авторский одноголосый закадровый (Л. Володарский), AC3 2.0, 48 kHz, 192 kbps - отдельно
Аудио #7: английский, оригинал, AC3 2.0, 48 kHz, 192 kbps - отдельно
Субтитры: русские внешние, SRT

Код:

Формат                                   : AVI
Формат/Информация                        : Audio Video Interleave
Профиль формата                          : OpenDML
Размер файла                             : 2,92 Гбайт
Продолжительность                        : 2 ч. 59 м.
Общий поток                              : 2320 Кбит/сек
Программа кодирования                    : VirtualDubMod 1.5.10.2 (build 2542/release)
Библиотека кодирования                   : VirtualDubMod build 2542/release

Видео
Идентификатор                            : 0
Формат                                   : MPEG-4 Visual
Профиль формата                          : Advanced Simple@L5
Параметр BVOP формата                    : 1
Параметр QPel формата                    : Да
Параметр GMC формата                     : Без точки перехода
Параметр матрицы формата                 : Default (MPEG)
Идентификатор кодека                     : XVID
Идентификатор кодека/Подсказка           : XviD
Продолжительность                        : 2 ч. 59 м.
Битрейт                                  : 2118 Кбит/сек
Ширина                                   : 704 пикселя
Высота                                   : 480 пикселей
Соотношение сторон                       : 4:3
Частота кадров                           : 23,976 кадра/сек
Цветовое пространство                    : YUV
Субдискретизация насыщенности            : 4:2:0
Битовая глубина                          : 8 бит
Тип развёртки                            : Прогрессивная
Метод сжатия                             : С потерями
Бит/(Пиксели*Кадры)                      : 0.261
Размер потока                            : 2,66 Гбайт (91%)
Библиотека кодирования                   : XviD 1.2.1 (UTC 2008-12-04)

Аудио
Идентификатор                            : 1
Формат                                   : AC-3
Формат/Информация                        : Audio Coding 3
Расширение режима                        : CM (complete main)
Параметр Endianness формата              : Big
Идентификатор кодека                     : 2000
Продолжительность                        : 2 ч. 59 м.
Вид битрейта                             : Постоянный
Битрейт                                  : 192 Кбит/сек
Каналы                                   : 2 канала
Расположение каналов                     : Front: L R
Частота                                  : 48,0 КГц
Метод сжатия                             : С потерями
Размер потока                            : 247 Мбайт (8%)
Выравнивание                             : Разделение по промежуткам
Продолжительность промежутка             : 42  мс. (1,00 видеокадр)
Время предзагрузки промежутка            : 500  мс.
picpicpicpicpic
Для увеличения картинки щелкните мышкой по превью

Этот торрент недоступен для скачивания без регистрации, однако доступен по публичной magnet-ссылке (источники с публичных трекеров). Перед использованием ссылки прочтите, пожалуйста Пользовательское соглашение, а также как можно дольше оставайтесь на раздаче! Для того, чтобы скачать сам торрент-файл (который видит больше источников), а также для того, чтобы поблагодарить релизера, вам необходимо зарегистрироваться. Если регистрироваться лень - вы можете также попробовать скачать релиз по нашим партнерским ссылкам ниже.

[underverse.su].t67431.torrent
Трекер: Зарегистрирован   [ 23.06.2016 22:29 ]  

Статус: проверено (by makkol at 24.06.2016 23:31)
Поблагодарили: 1 человек
Тип торрента: публичный - доступные источники с открытых трекеров: 
Размер: 4,45 GB (занимает 1,02 DVDR, для записи нужно 2 болванки DVDR/RW)
 
 

Яндекс.Метрика powered by Sphinx


В Н И М А Н И Е
Сайт не распространяет и не хранит электронные версии произведений, а лишь бесплатно и без коммерческой выгоды (не требуя взамен платы,
SMS и т.д.) предоставляет доступ к создаваемому пользователями каталогу ссылок на торрент-файлы, которые содержат только списки хеш-сумм.
Убедительная просьба с жалобами обращаться напрямую к пользователю, разместившему торрент файл.

Вверх