Loading...
Error

Мир природы - Горы тропических дождей / Natural World - The Mountains of the Monsoon [2009 г., документальный, природа, флора, фауна, HDTVRip] VO

Статистика раздачи
Размер:  692 MB   |    Зарегистрирован:  5 месяцев 15 дней   |    Скачан:  2 раза

Полного источника не было: 2 месяца 11 дней

Сидов:  0  |  0 KB/s  ]   Личеров:  0  |  0 KB/s  ]

* - сиды/пиры с внешних источников

   
 
Автор Сообщение

ARI71 Пол:Муж

23-Июн-2016 07:49

Мир природы - Горы тропических дождей / Natural World - The Mountains of the Monsoon


Год выпуска: 2009
Жанр: документальный, природа, флора, фауна
Страна: Великобритания ВВС
Режиссер: Сандеш Кадур
Сюжет фильма:
«Остановись, мгновенье! Ты - прекрасно!» - примерно так говорят почти все вдохновенные фотохудожники, для которых фотографирование – не просто ремесло, а творческий процесс. Индийский фотограф Сандеш Кадур более десяти лет снимает самые красивые и загадочные уголки Индии. В документальном фильме «Горы тропических дождей» зрителям представлены фото отчёты Кадура о его путешествии на гряду индийских гор под названием Западные Гаты. Он давно хотел там побывать, и вот наконец-то выпала такая возможность. Больше всего фотографа поразили экзотические редкие животные, обитающие в тех местах, с которыми теперь познакомитесь и вы.
Качество видео: HDTVRip

Продолжительность: 00:48:19
Формат: AVI
Видео: XviD, 720x400, ~1800 kbps
Аудио: русский, одноголосый (профессиональный), AC3 2.0, ~192.00 kbps

Код:

Общее
Полное имя : D:\BBC_NW_The Mountains of the Monsoon.HDTVRip.by RockeT [Virtus & KazTorrentS].avi
Формат : AVI
Формат/Информация : Audio Video Interleave
Размер файла : 692 Мбайт
Продолжительность : 48 м.
Общий поток : 2002 Кбит/сек
Программа кодирования : VirtualDubMod 1.5.10.3 | www.virtualdub-fr.org || (build 2550/release)
Библиотека кодирования : VirtualDubMod build 2550/release

Видео
Идентификатор : 0
Формат : MPEG-4 Visual
Профиль формата : Advanced Simple@L5
Параметр BVOP формата : 1
Параметр QPel формата : Нет
Параметр GMC формата : Без точки перехода
Параметр матрицы формата : Default (MPEG)
Идентификатор кодека : XVID
Идентификатор кодека/Подсказка : XviD
Продолжительность : 48 м.
Битрейт : 1800 Кбит/сек
Ширина : 720 пикселей
Высота : 400 пикселей
Соотношение сторон : 16:9
Частота кадров : 25,000 кадров/сек
Цветовое пространство : YUV
Субдискретизация насыщенности : 4:2:0
Битовая глубина : 8 бит
Тип развёртки : Прогрессивная
Метод сжатия : С потерями
Бит/(Пиксели*Кадры) : 0.250
Размер потока : 622 Мбайт (90%)
Библиотека кодирования : XviD 1.2.1 (UTC 2008-12-04)

Аудио
Идентификатор : 1
Формат : AC-3
Формат/Информация : Audio Coding 3
Расширение режима : CM (complete main)
Параметр Endianness формата : Big
Идентификатор кодека : 2000
Продолжительность : 48 м.
Вид битрейта : Постоянный
Битрейт : 192 Кбит/сек
Каналы : 2 канала
Расположение каналов : Front: L R
Частота : 48,0 КГц
Частота кадров : 31,250 кадров/сек (1536 spf)
Метод сжатия : С потерями
Размер потока : 66,4 Мбайт (10%)
Выравнивание : Разделение по промежуткам
Продолжительность промежутка : 40 мс. (1,00 видеокадр)
Время предзагрузки промежутка : 500 мс.
picpicpicpicpic
Для увеличения картинки щелкните мышкой по превью

Этот торрент недоступен для скачивания без регистрации, однако доступен по публичной magnet-ссылке (источники с публичных трекеров). Перед использованием ссылки прочтите, пожалуйста Пользовательское соглашение, а также как можно дольше оставайтесь на раздаче! Для того, чтобы скачать сам торрент-файл (который видит больше источников), а также для того, чтобы поблагодарить релизера, вам необходимо зарегистрироваться. Если регистрироваться лень - вы можете также попробовать скачать релиз по нашим партнерским ссылкам ниже.

[underverse.su].t67411.torrent
Трекер: Зарегистрирован   [ 23.06.2016 07:49 ]  

Статус: проверено (by makkol at 23.06.2016 10:43)
Поблагодарили: пока никто не поблагодарил...
Тип торрента: публичный - доступные источники с открытых трекеров: 
Размер: 692 MB (занимает 0,15 DVDR, для записи нужно 1 болванка DVDR/RW)
 
 
Похожие темы
Форум Тема Автор Торрент Отв. Посл. сооб.
BBC Мир природы. Из жизни крабов / BBC. The Natural World. Claws [2009 г., документальный, природа, фауна, SatRip] VO ARI71
0 | 0

0 | 640

10

18.08.2015 08:12

BBC Мир природы - Горы тропических дождей / Natural World - The Mountains of the Monsoon [2009 г., документальный, природа, флора, фауна, HDTVRip 720p] Dub ARI71
0 | 0

0 | 545

2

09.06.2016 20:02

BBC Мир природы. Кукушка / The Natural World. Cuckoo (Тим Мартин) [2007 г., документальный, природа, фауна, птицы, SatRip] VO ARI71
1 | 0

0 | 487

1

28.06.2016 15:14

BBC Мир природы. Кукушка / The Natural World. Cuckoo (Тим Мартин) [2007 г., документальный, флора, фауна, HDTVRip 720p] Dub + Original (Eng) + Sub (Eng) ARI71
0 | 0

0 | 513

1

28.06.2016 16:12

BBC Мир природы. Секреты подземелий майя / Natural World. Secrets of the Maya Underworld (Тим Мартин) [2005 г., документальный, познавательный, HDTVRip] VO ARI71
15 | 1

0 | 594

5

29.06.2016 16:05


Яндекс.Метрика powered by Sphinx


В Н И М А Н И Е
Сайт не распространяет и не хранит электронные версии произведений, а лишь бесплатно и без коммерческой выгоды (не требуя взамен платы,
SMS и т.д.) предоставляет доступ к создаваемому пользователями каталогу ссылок на торрент-файлы, которые содержат только списки хеш-сумм.
Убедительная просьба с жалобами обращаться напрямую к пользователю, разместившему торрент файл.

Вверх