Loading...
Error

Убийца / Sicario (Дени Вильнёв / Denis Villeneuve) [2015 г., боевик, триллер, драма, криминал, детектив, BDRip] Rus Dub [iTunes] HQ Underverse

Статистика раздачи
Размер:  2,18 GB   |    Зарегистрирован:  5 месяцев 16 дней   |    Скачан:  9 раз
Сидов:  3  |  0 KB/s  ]   Личеров:  0  |  0 KB/s  ]

* - сиды/пиры с внешних источников

   
 
Автор Сообщение

HQ Underverse 

22-Июн-2016 13:13

Убийца / Sicario


Год выпуска: 2015
Жанр: боевик, триллер, драма, криминал, детектив
Страна: США
Режиссер: Дени Вильнёв / Denis Villeneuve
В ролях: Эмили Блант, Бенисио Дель Торо, Джош Бролин, Виктор Гарбер, Джон Бернтал, Дэниэл Калуя, Джеффри Донован, Рауль Трухильо, Хулио Седильо, Хэнк Роджерсон
Сюжет фильма:
Безлюдные пустоши, по которым проходит граница между Мексикой и США, — это территория без правил, поле битвы между мексиканскими наркокартелями и американскими спецслужбами. Агент ФБР Кейт Мэйсер, которая работает в приграничных районах, старается придерживаться собственных идеалов, хотя и начинает ощущать, что исход войны с наркотрафиком складывается не в пользу служителей закона.

Однажды ей предоставляется шанс принять участие в работе элитного подразделения по борьбе с наркотиками, возглавляемого агентом Мэттом Грейвером. Самый загадочный участник команды — местный консультант, человек без имени, привычек, и, кажется, без прошлого. Его истинное лицо откроется только в ходе рискованной операции, во время которой Кейт будет вынуждена поступиться собственными принципами, чтобы остаться в живых.

  • Мировая премьера: 19 мая 2015
  • Российская премьера: 26 ноября 2015

/
Качество видео: BDRip

Продолжительность: 02:01:20
Формат: avi
Видео: XviD, 720x304, 2176 kbps
Аудио #1: русский, дублированный [лицензия, iTunes], AC3 5.1, 384 kbps
Аудио #2: украинский, дублированный [Line], AC3 2.0, 192 kbps (отдельным файлом)
Субтитры #1: внешние, SRT, русский
Субтитры #2: внешние, SRT, русский Forced
Субтитры #3: внешние, SRT, английский

Семпл: http://multi-up.com/1106915

Релиз группы:

Код:

General
Complete name                    : D:\Video\Movies\Releases\Sicario.2015.BDRip.XviD.AC3.Rus.D.HQ.Underverse.avi
Format                           : AVI
Format/Info                      : Audio Video Interleave
Format profile                   : OpenDML
File size                        : 2.18 GiB
Duration                         : 2h 1mn
Overall bit rate                 : 2 572 Kbps
Writing application              : VirtualDubMod 1.5.10.3 | www.virtualdub-fr.org || (build 2550/release)
Writing library                  : VirtualDubMod build 2550/release

Video
ID                               : 0
Format                           : MPEG-4 Visual
Format profile                   : Streaming Video@L1
Format settings, BVOP            : Yes
Format settings, QPel            : No
Format settings, GMC             : No warppoints
Format settings, Matrix          : Custom
Codec ID                         : XVID
Codec ID/Hint                    : XviD
Duration                         : 2h 1mn
Bit rate                         : 2 177 Kbps
Width                            : 720 pixels
Height                           : 304 pixels
Display aspect ratio             : 2.35
Frame rate                       : 23.976 fps
Resolution                       : 24 bits
Colorimetry                      : 4:2:0
Scan type                        : Progressive
Bits/(Pixel*Frame)               : 0.415
Stream size                      : 1.84 GiB (85%)
Writing library                  : XviD 67

Audio
ID                               : 1
Format                           : AC-3
Format/Info                      : Audio Coding 3
Codec ID                         : 2000
Duration                         : 2h 1mn
Bit rate mode                    : Constant
Bit rate                         : 384 Kbps
Channel(s)                       : 6 channels
Channel positions                : Front: L C R, Surround: L R, LFE
Sampling rate                    : 48.0 KHz
Stream size                      : 333 MiB (15%)
Alignment                        : Split accross interleaves
Interleave, duration             : 42 ms (1.00 video frame)
Interleave, preload duration     : 500 ms
Title                            : Russian Dub [iTunes]

General
Complete name                    : D:\Video\Movies\Releases\Sicario.2015.BDRip.XviD.AC3.Rus.D.HQ.Underverse.Ukr.ac3
Format                           : AC-3
Format/Info                      : Audio Coding 3
File size                        : 167 MiB
Duration                         : 2h 1mn
Overall bit rate                 : 192 Kbps

Audio
Format                           : AC-3
Format/Info                      : Audio Coding 3
Duration                         : 2h 1mn
Bit rate mode                    : Constant
Bit rate                         : 192 Kbps
Channel(s)                       : 2 channels
Channel positions                : L R
Sampling rate                    : 48.0 KHz
Stream size                      : 167 MiB (100%)
picpicpicpic
Для увеличения картинки щелкните мышкой по превью

Этот торрент недоступен для скачивания без регистрации, однако доступен по публичной magnet-ссылке (источники с публичных трекеров). Перед использованием ссылки прочтите, пожалуйста Пользовательское соглашение, а также как можно дольше оставайтесь на раздаче! Для того, чтобы скачать сам торрент-файл (который видит больше источников), а также для того, чтобы поблагодарить релизера, вам необходимо зарегистрироваться. Если регистрироваться лень - вы можете также попробовать скачать релиз по нашим партнерским ссылкам ниже.

[underverse.su].t67400.torrent
Трекер: Зарегистрирован   [ 22.06.2016 13:13 ]  

Статус: проверено (by HQ Underverse at 22.06.2016 13:31)
Поблагодарили: 3 человека
Тип торрента: публичный - доступные источники с открытых трекеров: 
Размер: 2,18 GB (занимает 1/2 DVDR, для записи нужно 1 болванка DVDR/RW)
 
 
Похожие темы
Форум Тема Автор Торрент Отв. Посл. сооб.
T Зарубежное кино [DVDRip, Low-Res HDRip, и т.д.] Убийца / Sicario (Дени Вильнёв) [2015 г., боевик, триллер, драма, криминал, детектив, HDRip] Dub makkol
0 | 0

0 | 477

14

16.03.2016 10:54

T Зарубежное кино [DVDRip, Low-Res HDRip, и т.д.] Убийца / Sicario (Дени Вильнёв) [2015 г., боевик, триллер, драма, криминал, детектив, HDRip] Dub + Original makkol
0 | 0

0 | 438

7

16.03.2016 11:04

T Зарубежное кино [DVDRip, Low-Res HDRip, и т.д.] Убийца / Sicario (Дени Вильнёв) [2015 г., боевик, триллер, драма, криминал, детектив, HDRip] Dub (Line) + Original makkol
30 | 0

0 | 768

80

24.12.2015 22:28

T Зарубежное кино [DVDRip, Low-Res HDRip, и т.д.] Убийца / Sicario (Дени Вильнёв / Denis Villeneuve) [2015 г., боевик, триллер, драма, криминал, детектив, HDRip] Dub/AVO (чистый звук) + AVO (Есарев, без цензуры) 90ytr90
45 | 1

0 | 630

26

09.01.2016 15:23

Зарубежное кино [DVDRip, Low-Res HDRip, и т.д.] Убийца / Sicario (Дени Вильнёв / Denis Villeneuve) [2015 г., боевик, триллер, драма, криминал, детектив, BDRip] AVO (Матвеев, без цензуры) 90ytr90
21 | 0

0 | 728

19

09.01.2016 16:03

Зарубежное кино [DVDRip, Low-Res HDRip, и т.д.] Убийца / Sicario (Дени Вильнёв / Denis Villeneuve) [2015 г., боевик, триллер, драма, криминал, детектив, BDRip-AVC] AVO (Есарев, цензурный) + Original (Eng) + Sub (Eng) 90ytr90
9 | 0

0 | 758

13

09.01.2016 16:39

T Зарубежное кино [DVDRip, Low-Res HDRip, и т.д.] Убийца / Sicario (Дени Вильнёв / Denis Villeneuve) [2015 г., боевик, триллер, драма, криминал, детектив, HDRip] Dub/AVO (чистый звук) 90ytr90
263 | 5

0 | 589

29

23.01.2016 12:37

Зарубежное кино [DVDRip, Low-Res HDRip, и т.д.] Убийца / Sicario (Дени Вильнёв / Denis Villeneuve) [2015 г., боевик, триллер, драма, криминал, детектив, НDRip] AVO (Есарев, без цензуры) 90ytr90
64 | 0

0 | 414

8

23.01.2016 14:00

T Зарубежное кино [DVDRip, Low-Res HDRip, и т.д.] Убийца / Sicario (Дени Вильнёв / Denis Villeneuve) [2015 г., боевик, триллер, драма, криминал, детектив, BDRip-AVC] Dub (iTunes) + Sub (Rus) 90ytr90
36 | 1

0 | 546

2

27.08.2016 06:56

T Зарубежное кино [DVDRip, Low-Res HDRip, и т.д.] Убийца / Sicario (Дени Вильнёв / Denis Villeneuve) [2015 г., боевик, триллер, драма, криминал, детектив, BDRip-AVC] Dub (iTunes) + Original (Eng) + Sub (Rus, Eng) 90ytr90
40 | 1

0 | 600

10

27.08.2016 07:13


Яндекс.Метрика powered by Sphinx


В Н И М А Н И Е
Сайт не распространяет и не хранит электронные версии произведений, а лишь бесплатно и без коммерческой выгоды (не требуя взамен платы,
SMS и т.д.) предоставляет доступ к создаваемому пользователями каталогу ссылок на торрент-файлы, которые содержат только списки хеш-сумм.
Убедительная просьба с жалобами обращаться напрямую к пользователю, разместившему торрент файл.

Вверх