Loading...
Error

Душа шпиона (Владимир Бортко) [2015 г., детектив, драма, SatRip]

Статистика раздачи
Размер:  1,41 GB   |    Зарегистрирован:  5 месяцев 12 дней   |    Скачан:  40 раз

Полного источника не было: 1 день 20 часов

Сидов:  0  |  0 KB/s  ]   Личеров:  0  |  0 KB/s  ]

* - сиды/пиры с внешних источников

   
 
Автор Сообщение

makkol Пол:Муж

20-Июн-2016 23:02

Душа шпиона


Год выпуска: 2015
Жанр: детектив, драма
Производство: Россия [Three T Productions, Art4noise, Celtic Films Entertainment]
Режиссер: Владимир Бортко
В ролях: Андрей Чернышов, Фёдор Бондарчук, Даниил Спиваковский, Марина Александрова, Малкольм МакДауэлл, Сандрин Боннэр, Лайэм Каннингхэм, Михаил Ефремов, Армен Джигарханян, Нина Гогаева, Кристина Бродская, Алексей Булдаков, Алексей Панин, Рудольф Фурманов, Ольга Дроздова, Мария Жиганова, Анна Екатерининская, Виталий Кривонос
Сюжет фильма:
Перед российским шпионом в Англии Алексом Уилки стоит задача проникнуть в американскую разведку и выявить крота — нашего разведчика, передающего врагу агентурные сведения. Герой вынужден преодолевать невероятные препятствия, чтобы войти в доверие к американцам…

  • Мировая премьера: 28 августа 2015
  • Российская премьера: 8 октября 2015


Качество видео: SatRip

Продолжительность: 01:40:36
Формат: AVI
Видео: XviD, 720x384 (1.85:1), 25.000 fps, 1800 kbps
Аудио: русский, оригинал, AC3 2.0, 48 kHz, 192 kbps

Код:

Формат                                   : AVI
Формат/Информация                        : Audio Video Interleave
Размер файла                             : 1,41 Гбайт
Продолжительность                        : 1 ч. 40 м.
Общий поток                              : 2002 Кбит/сек
Программа кодирования                    : VirtualDubMod 1.5.10.3 | www.virtualdub-fr.org || (build 2550/release)
Библиотека кодирования                   : VirtualDubMod build 2550/release

Видео
Идентификатор                            : 0
Формат                                   : MPEG-4 Visual
Профиль формата                          : Advanced Simple@L5
Параметр BVOP формата                    : 2
Параметр QPel формата                    : Нет
Параметр GMC формата                     : Без точки перехода
Параметр матрицы формата                 : Default (MPEG)
Идентификатор кодека                     : XVID
Идентификатор кодека/Подсказка           : XviD
Продолжительность                        : 1 ч. 40 м.
Битрейт                                  : 1800 Кбит/сек
Ширина                                   : 720 пикселей
Высота                                   : 384 пикселя
Соотношение сторон                       : 1,85:1
Частота кадров                           : 25,000 кадров/сек
Цветовое пространство                    : YUV
Субдискретизация насыщенности            : 4:2:0
Битовая глубина                          : 8 бит
Тип развёртки                            : Прогрессивная
Метод сжатия                             : С потерями
Бит/(Пиксели*Кадры)                      : 0.260
Размер потока                            : 1,26 Гбайт (90%)
Библиотека кодирования                   : XviD 1.2.1 (UTC 2008-12-04)

Аудио
Идентификатор                            : 1
Формат                                   : AC-3
Формат/Информация                        : Audio Coding 3
Расширение режима                        : CM (complete main)
Параметр Endianness формата              : Big
Идентификатор кодека                     : 2000
Продолжительность                        : 1 ч. 40 м.
Вид битрейта                             : Постоянный
Битрейт                                  : 192 Кбит/сек
Каналы                                   : 2 канала
Расположение каналов                     : Front: L R
Частота                                  : 48,0 КГц
Частота кадров                           : 31,250 кадров/сек (1536 spf)
Метод сжатия                             : С потерями
Размер потока                            : 138 Мбайт (10%)
Выравнивание                             : Разделение по промежуткам
Продолжительность промежутка             : 40  мс. (1,00 видеокадр)
Время предзагрузки промежутка            : 500  мс.
picpicpicpicpic
Для увеличения картинки щелкните мышкой по превью

Этот торрент недоступен для скачивания без регистрации, однако доступен по публичной magnet-ссылке (источники с публичных трекеров). Перед использованием ссылки прочтите, пожалуйста Пользовательское соглашение, а также как можно дольше оставайтесь на раздаче! Для того, чтобы скачать сам торрент-файл (который видит больше источников), а также для того, чтобы поблагодарить релизера, вам необходимо зарегистрироваться. Если регистрироваться лень - вы можете также попробовать скачать релиз по нашим партнерским ссылкам ниже.

[underverse.su].t67380.torrent
Трекер: Зарегистрирован   [ 20.06.2016 23:02 ]  

Статус: проверено (by makkol at 24.06.2016 23:15)
Поблагодарили: 2 человека
Тип торрента: публичный - доступные источники с открытых трекеров: 
Размер: 1,41 GB (занимает 0,32 DVDR, для записи нужно 1 болванка DVDR/RW)
 
 
Похожие темы
Форум Тема Автор Торрент Отв. Посл. сооб.
Наше кино [HDDVDRip / BDRip / WEB-DL / HDTV 1080/720р] Душа шпиона (Владимир Бортко) [2015 г., детектив, драма, HDTVRip 720p] makkol
43 | 0

0 | 413

11

25.06.2016 12:45

Наше кино [HDDVDRip / BDRip / WEB-DL / HDTV 1080/720р] Душа шпиона (Владимир Бортко) [2015 г., детектив, драма, HDTV 1080i] makkol
18 | 2

0 | 408

11

25.06.2016 12:52


Яндекс.Метрика powered by Sphinx


В Н И М А Н И Е
Сайт не распространяет и не хранит электронные версии произведений, а лишь бесплатно и без коммерческой выгоды (не требуя взамен платы,
SMS и т.д.) предоставляет доступ к создаваемому пользователями каталогу ссылок на торрент-файлы, которые содержат только списки хеш-сумм.
Убедительная просьба с жалобами обращаться напрямую к пользователю, разместившему торрент файл.

Вверх